<?xml version="1.0" encoding="UTF-8"?>
<svg xmlns="http://www.w3.org/2000/svg" xmlns:xlink="http://www.w3.org/1999/xlink" version="1.2" >
<font id="Luciole Bold">
<font-face  font-family="Luciole" units-per-em="1000" ascent="791" descent="-224" font-style="normal" font-weight="600" font-stretch="normal" cap-height="763" x-height="545" underline-position="-130" underline-thickness="120" />
<missing-glyph  horiz-adv-x="840" d="M760 802 L760 -235 L80 -235 L80 802 L760 802 Z M670 712 L170 712 L170 -145 L670 -145 L670 712 Z M603 466 Q603 432 588 400 Q573 368 524 313 Q469 252 452 213 Q435 174 435 131 L334 131 Q333 185 351 231.5 Q369 278 426 343 Q464 387 475 409.5 Q486 432 486 455 Q486 498 461 522 Q436 546 392 546 Q352 546 309.5 529 Q267 512 237 484 L237 595 Q271 620 315 633.5 Q359 647 404 647 Q494 647 548.5 598.5 Q603 550 603 466 Z M463 -10 Q463 -42 440 -65 Q417 -88 385 -88 Q353 -88 330 -65 Q307 -42 307 -10 Q307 22 330 45 Q353 68 385 68 Q417 68 440 45 Q463 22 463 -10 Z " />
<glyph glyph-name="space" unicode="&#x20;" horiz-adv-x="390" d="" />
<glyph glyph-name="thinspace" unicode="&#x2009;" horiz-adv-x="180" d="" />
<glyph glyph-name="A" unicode="A" horiz-adv-x="774" d="M288 140 L245 0 L20 0 L274 763 L500 763 L754 0 L529 0 L486 140 L288 140 Z M384 555 Q380 528 372 487.5 Q364 447 355 415 L324 304 L450 304 L420 415 Q411 448 402.5 488.5 Q394 529 391 555 L384 555 Z " />
<glyph glyph-name="Agrave" unicode="&#xc0;" horiz-adv-x="774" d="M410 799 L113 938 L216 1090 L477 920 L410 799 Z M288 140 L245 0 L20 0 L274 763 L500 763 L754 0 L529 0 L486 140 L288 140 Z M384 555 Q380 528 372 487.5 Q364 447 355 415 L324 304 L450 304 L420 415 Q411 448 402.5 488.5 Q394 529 391 555 L384 555 Z " />
<glyph glyph-name="Aacute" unicode="&#xc1;" horiz-adv-x="774" d="M655 938 L358 799 L291 920 L552 1090 L655 938 Z M288 140 L245 0 L20 0 L274 763 L500 763 L754 0 L529 0 L486 140 L288 140 Z M384 555 Q380 528 372 487.5 Q364 447 355 415 L324 304 L450 304 L420 415 Q411 448 402.5 488.5 Q394 529 391 555 L384 555 Z " />
<glyph glyph-name="Acircumflex" unicode="&#xc2;" horiz-adv-x="774" d="M388 919 L232 814 L152 904 L319 1066 L454 1066 L623 904 L541 814 L388 919 Z M288 140 L245 0 L20 0 L274 763 L500 763 L754 0 L529 0 L486 140 L288 140 Z M384 555 Q380 528 372 487.5 Q364 447 355 415 L324 304 L450 304 L420 415 Q411 448 402.5 488.5 Q394 529 391 555 L384 555 Z " />
<glyph glyph-name="Atilde" unicode="&#xc3;" horiz-adv-x="774" d="M615 1041 Q625 939 586.5 885.5 Q548 832 467 832 Q449 832 430 838 Q411 844 378 863 Q353 878 341.5 882 Q330 886 321 886 Q301 886 293.5 872.5 Q286 859 289 830 L160 830 Q150 932 188.5 985.5 Q227 1039 308 1039 Q327 1039 347 1033 Q367 1027 399 1008 Q423 995 434 991 Q445 987 454 987 Q474 987 481.5 1000 Q489 1013 486 1041 L615 1041 Z M288 140 L245 0 L20 0 L274 763 L500 763 L754 0 L529 0 L486 140 L288 140 Z M384 555 Q380 528 372 487.5 Q364 447 355 415 L324 304 L450 304 L420 415 Q411 448 402.5 488.5 Q394 529 391 555 L384 555 Z " />
<glyph glyph-name="Adieresis" unicode="&#xc4;" horiz-adv-x="774" d="M350 944 Q350 902 321 873.5 Q292 845 249 845 Q205 845 176 873.5 Q147 902 147 944 Q147 987 176 1015.5 Q205 1044 249 1044 Q292 1044 321 1015.5 Q350 987 350 944 Z M628 944 Q628 902 598.5 873.5 Q569 845 526 845 Q482 845 453 873.5 Q424 902 424 944 Q424 986 453 1014.5 Q482 1043 526 1043 Q569 1043 598.5 1014.5 Q628 986 628 944 Z M288 140 L245 0 L20 0 L274 763 L500 763 L754 0 L529 0 L486 140 L288 140 Z M384 555 Q380 528 372 487.5 Q364 447 355 415 L324 304 L450 304 L420 415 Q411 448 402.5 488.5 Q394 529 391 555 L384 555 Z " />
<glyph glyph-name="Aring" unicode="&#xc5;" horiz-adv-x="774" d="M387 1079 Q475 1079 530.5 1039.5 Q586 1000 586 940 Q586 880 530.5 840.5 Q475 801 387 801 Q299 801 243.5 840.5 Q188 880 188 940 Q188 1000 243.5 1039.5 Q299 1079 387 1079 Z M387 989 Q351 989 329.5 976 Q308 963 308 940 Q308 917 329.5 904 Q351 891 387 891 Q423 891 444.5 904 Q466 917 466 940 Q466 963 444.5 976 Q423 989 387 989 Z M288 140 L245 0 L20 0 L274 763 L500 763 L754 0 L529 0 L486 140 L288 140 Z M384 555 Q380 528 372 487.5 Q364 447 355 415 L324 304 L450 304 L420 415 Q411 448 402.5 488.5 Q394 529 391 555 L384 555 Z " />
<glyph glyph-name="Amacron" unicode="&#x100;" horiz-adv-x="774" d="M608 1010 L608 878 L166 878 L166 1010 L608 1010 Z M288 140 L245 0 L20 0 L274 763 L500 763 L754 0 L529 0 L486 140 L288 140 Z M384 555 Q380 528 372 487.5 Q364 447 355 415 L324 304 L450 304 L420 415 Q411 448 402.5 488.5 Q394 529 391 555 L384 555 Z " />
<glyph glyph-name="Abreve" unicode="&#x102;" horiz-adv-x="774" d="M607 1043 Q607 944 548.5 883.5 Q490 823 389 823 Q287 823 228.5 883.5 Q170 944 170 1043 L292 1043 Q294 1004 319.5 981.5 Q345 959 389 959 Q433 959 458 981.5 Q483 1004 486 1043 L607 1043 Z M288 140 L245 0 L20 0 L274 763 L500 763 L754 0 L529 0 L486 140 L288 140 Z M384 555 Q380 528 372 487.5 Q364 447 355 415 L324 304 L450 304 L420 415 Q411 448 402.5 488.5 Q394 529 391 555 L384 555 Z " />
<glyph glyph-name="Aogonek" unicode="&#x104;" horiz-adv-x="774" d="M754 -215 Q727 -225 694.5 -230.5 Q662 -236 628 -236 Q562 -236 518.5 -200 Q475 -164 475 -107 Q475 -73 489.5 -46 Q504 -19 533 0 L529 0 L486 140 L288 140 L245 0 L20 0 L274 763 L500 763 L754 0 Q707 -9 677 -32 Q647 -55 647 -79 Q647 -93 657 -100.5 Q667 -108 687 -108 Q703 -108 719.5 -104 Q736 -100 754 -91 L754 -215 Z M384 555 Q380 528 372 487.5 Q364 447 355 415 L324 304 L450 304 L420 415 Q411 448 402.5 488.5 Q394 529 391 555 L384 555 Z " />
<glyph glyph-name="Aringacute" unicode="&#x1fa;" horiz-adv-x="774" d="M593 1235 L296 1096 L229 1217 L490 1387 L593 1235 Z M385 1079 Q473 1079 528.5 1039.5 Q584 1000 584 940 Q584 880 528.5 840.5 Q473 801 385 801 Q297 801 241.5 840.5 Q186 880 186 940 Q186 1000 241.5 1039.5 Q297 1079 385 1079 Z M385 989 Q349 989 327.5 976 Q306 963 306 940 Q306 917 327.5 904 Q349 891 385 891 Q421 891 442.5 904 Q464 917 464 940 Q464 963 442.5 976 Q421 989 385 989 Z M288 140 L245 0 L20 0 L274 763 L500 763 L754 0 L529 0 L486 140 L288 140 Z M384 555 Q380 528 372 487.5 Q364 447 355 415 L324 304 L450 304 L420 415 Q411 448 402.5 488.5 Q394 529 391 555 L384 555 Z " />
<glyph glyph-name="AE" unicode="&#xc6;" horiz-adv-x="1015" d="M20 0 L319 763 L943 763 L943 599 L669 599 L669 469 L923 469 L923 305 L669 305 L669 164 L955 164 L955 0 L451 0 L451 140 L291 140 L245 0 L20 0 Z M444 609 L344 304 L451 304 L451 609 L444 609 Z " />
<glyph glyph-name="AEacute" unicode="&#x1fc;" horiz-adv-x="1015" d="M877 938 L580 799 L513 920 L774 1090 L877 938 Z M20 0 L319 763 L943 763 L943 599 L669 599 L669 469 L923 469 L923 305 L669 305 L669 164 L955 164 L955 0 L451 0 L451 140 L291 140 L245 0 L20 0 Z M444 609 L344 304 L451 304 L451 609 L444 609 Z " />
<glyph glyph-name="B" unicode="B" horiz-adv-x="724" d="M400 763 Q517 763 580 711.5 Q643 660 643 565 Q643 498 612.5 456 Q582 414 520 396 L520 394 Q591 383 632.5 336.5 Q674 290 674 223 Q674 114 597 57 Q520 0 372 0 L80 0 L80 763 L400 763 Z M298 470 L359 470 Q393 470 410.5 486.5 Q428 503 428 535 Q428 566 410.5 581.5 Q393 597 359 597 L298 597 L298 470 Z M298 166 L376 166 Q414 166 436 185.5 Q458 205 458 239 Q458 269 436 286.5 Q414 304 375 304 L298 304 L298 166 Z " />
<glyph glyph-name="C" unicode="C" horiz-adv-x="668" d="M268 382 Q268 279 308 227 Q348 175 428 175 Q479 175 532 192 Q585 209 628 239 L628 47 Q580 19 518 4.5 Q456 -10 389 -10 Q232 -10 141 97 Q50 204 50 381 Q50 561 146.5 667 Q243 773 413 773 Q473 773 524.5 761.5 Q576 750 623 727 L623 530 Q579 561 534.5 575 Q490 589 434 589 Q349 589 308.5 538 Q268 487 268 382 Z " />
<glyph glyph-name="Ccedilla" unicode="&#xc7;" horiz-adv-x="668" d="M521 -107 Q521 -164 477.5 -200 Q434 -236 368 -236 Q334 -236 301.5 -230.5 Q269 -225 242 -215 L242 -91 Q262 -100 276.5 -104 Q291 -108 305 -108 Q326 -108 337.5 -96 Q349 -84 349 -63 Q349 -48 343 -34 Q337 -20 322 -4 Q195 18 122.5 121 Q50 224 50 381 Q50 561 146.5 667 Q243 773 413 773 Q473 773 524.5 761.5 Q576 750 623 727 L623 530 Q579 561 534.5 575 Q490 589 434 589 Q349 589 308.5 538 Q268 487 268 382 Q268 279 308 227 Q348 175 428 175 Q479 175 532 192 Q585 209 628 239 L628 47 Q596 28 557 15.5 Q518 3 475 -4 Q480 -8 483.5 -12 Q487 -16 491 -21 Q506 -40 513.5 -61 Q521 -82 521 -107 Z " />
<glyph glyph-name="Cacute" unicode="&#x106;" horiz-adv-x="668" d="M638 938 L341 799 L274 920 L535 1090 L638 938 Z M268 382 Q268 279 308 227 Q348 175 428 175 Q479 175 532 192 Q585 209 628 239 L628 47 Q580 19 518 4.5 Q456 -10 389 -10 Q232 -10 141 97 Q50 204 50 381 Q50 561 146.5 667 Q243 773 413 773 Q473 773 524.5 761.5 Q576 750 623 727 L623 530 Q579 561 534.5 575 Q490 589 434 589 Q349 589 308.5 538 Q268 487 268 382 Z " />
<glyph glyph-name="Ccircumflex" unicode="&#x108;" horiz-adv-x="668" d="M406 919 L250 814 L170 904 L337 1066 L472 1066 L641 904 L559 814 L406 919 Z M268 382 Q268 279 308 227 Q348 175 428 175 Q479 175 532 192 Q585 209 628 239 L628 47 Q580 19 518 4.5 Q456 -10 389 -10 Q232 -10 141 97 Q50 204 50 381 Q50 561 146.5 667 Q243 773 413 773 Q473 773 524.5 761.5 Q576 750 623 727 L623 530 Q579 561 534.5 575 Q490 589 434 589 Q349 589 308.5 538 Q268 487 268 382 Z " />
<glyph glyph-name="Cdotaccent" unicode="&#x10a;" horiz-adv-x="668" d="M519 942 Q519 892 484.5 858.5 Q450 825 400 825 Q348 825 313.5 858.5 Q279 892 279 942 Q279 992 313.5 1025 Q348 1058 400 1058 Q451 1058 485 1025 Q519 992 519 942 Z M268 382 Q268 279 308 227 Q348 175 428 175 Q479 175 532 192 Q585 209 628 239 L628 47 Q580 19 518 4.5 Q456 -10 389 -10 Q232 -10 141 97 Q50 204 50 381 Q50 561 146.5 667 Q243 773 413 773 Q473 773 524.5 761.5 Q576 750 623 727 L623 530 Q579 561 534.5 575 Q490 589 434 589 Q349 589 308.5 538 Q268 487 268 382 Z " />
<glyph glyph-name="Ccaron" unicode="&#x10c;" horiz-adv-x="668" d="M400 961 L556 1066 L636 976 L469 814 L334 814 L165 976 L247 1066 L400 961 Z M268 382 Q268 279 308 227 Q348 175 428 175 Q479 175 532 192 Q585 209 628 239 L628 47 Q580 19 518 4.5 Q456 -10 389 -10 Q232 -10 141 97 Q50 204 50 381 Q50 561 146.5 667 Q243 773 413 773 Q473 773 524.5 761.5 Q576 750 623 727 L623 530 Q579 561 534.5 575 Q490 589 434 589 Q349 589 308.5 538 Q268 487 268 382 Z " />
<glyph glyph-name="D" unicode="D" horiz-adv-x="775" d="M735 381 Q735 205 632 102.5 Q529 0 346 0 L80 0 L80 763 L343 763 Q531 763 633 662.5 Q735 562 735 381 Z M334 589 L298 589 L298 174 L346 174 Q429 174 473 228 Q517 282 517 382 Q517 483 470.5 536 Q424 589 334 589 Z " />
<glyph glyph-name="Dcaron" unicode="&#x10e;" horiz-adv-x="775" d="M369 961 L525 1066 L605 976 L438 814 L303 814 L134 976 L216 1066 L369 961 Z M735 381 Q735 205 632 102.5 Q529 0 346 0 L80 0 L80 763 L343 763 Q531 763 633 662.5 Q735 562 735 381 Z M334 589 L298 589 L298 174 L346 174 Q429 174 473 228 Q517 282 517 382 Q517 483 470.5 536 Q424 589 334 589 Z " />
<glyph glyph-name="Dcroat" unicode="&#x110;" horiz-adv-x="775" d="M735 381 Q735 205 632 102.5 Q529 0 346 0 L80 0 L80 313 L20 313 L20 473 L80 473 L80 763 L343 763 Q531 763 633 662.5 Q735 562 735 381 Z M298 174 L346 174 Q429 174 473 228 Q517 282 517 382 Q517 483 470.5 536 Q424 589 334 589 L298 589 L298 473 L420 473 L420 313 L298 313 L298 174 Z " />
<glyph glyph-name="Eth" unicode="&#xd0;" horiz-adv-x="775" d="M735 381 Q735 205 632 102.5 Q529 0 346 0 L80 0 L80 313 L20 313 L20 473 L80 473 L80 763 L343 763 Q531 763 633 662.5 Q735 562 735 381 Z M298 174 L346 174 Q429 174 473 228 Q517 282 517 382 Q517 483 470.5 536 Q424 589 334 589 L298 589 L298 473 L420 473 L420 313 L298 313 L298 174 Z " />
<glyph glyph-name="E" unicode="E" horiz-adv-x="644" d="M584 164 L584 0 L80 0 L80 763 L572 763 L572 599 L298 599 L298 469 L552 469 L552 305 L298 305 L298 164 L584 164 Z " />
<glyph glyph-name="Egrave" unicode="&#xc8;" horiz-adv-x="644" d="M391 799 L94 938 L197 1090 L458 920 L391 799 Z M584 164 L584 0 L80 0 L80 763 L572 763 L572 599 L298 599 L298 469 L552 469 L552 305 L298 305 L298 164 L584 164 Z " />
<glyph glyph-name="Eacute" unicode="&#xc9;" horiz-adv-x="644" d="M552 938 L255 799 L188 920 L449 1090 L552 938 Z M584 164 L584 0 L80 0 L80 763 L572 763 L572 599 L298 599 L298 469 L552 469 L552 305 L298 305 L298 164 L584 164 Z " />
<glyph glyph-name="Ecircumflex" unicode="&#xca;" horiz-adv-x="644" d="M333 919 L177 814 L97 904 L264 1066 L399 1066 L568 904 L486 814 L333 919 Z M584 164 L584 0 L80 0 L80 763 L572 763 L572 599 L298 599 L298 469 L552 469 L552 305 L298 305 L298 164 L584 164 Z " />
<glyph glyph-name="Edieresis" unicode="&#xcb;" horiz-adv-x="644" d="M295 944 Q295 902 266 873.5 Q237 845 194 845 Q150 845 121 873.5 Q92 902 92 944 Q92 987 121 1015.5 Q150 1044 194 1044 Q237 1044 266 1015.5 Q295 987 295 944 Z M573 944 Q573 902 543.5 873.5 Q514 845 471 845 Q427 845 398 873.5 Q369 902 369 944 Q369 986 398 1014.5 Q427 1043 471 1043 Q514 1043 543.5 1014.5 Q573 986 573 944 Z M584 164 L584 0 L80 0 L80 763 L572 763 L572 599 L298 599 L298 469 L552 469 L552 305 L298 305 L298 164 L584 164 Z " />
<glyph glyph-name="Emacron" unicode="&#x112;" horiz-adv-x="644" d="M553 1010 L553 878 L111 878 L111 1010 L553 1010 Z M584 164 L584 0 L80 0 L80 763 L572 763 L572 599 L298 599 L298 469 L552 469 L552 305 L298 305 L298 164 L584 164 Z " />
<glyph glyph-name="Ebreve" unicode="&#x114;" horiz-adv-x="644" d="M551 1043 Q551 944 492.5 883.5 Q434 823 333 823 Q231 823 172.5 883.5 Q114 944 114 1043 L236 1043 Q238 1004 263.5 981.5 Q289 959 333 959 Q377 959 402 981.5 Q427 1004 430 1043 L551 1043 Z M584 164 L584 0 L80 0 L80 763 L572 763 L572 599 L298 599 L298 469 L552 469 L552 305 L298 305 L298 164 L584 164 Z " />
<glyph glyph-name="Edotaccent" unicode="&#x116;" horiz-adv-x="644" d="M448 942 Q448 892 413.5 858.5 Q379 825 329 825 Q277 825 242.5 858.5 Q208 892 208 942 Q208 992 242.5 1025 Q277 1058 329 1058 Q380 1058 414 1025 Q448 992 448 942 Z M584 164 L584 0 L80 0 L80 763 L572 763 L572 599 L298 599 L298 469 L552 469 L552 305 L298 305 L298 164 L584 164 Z " />
<glyph glyph-name="Eogonek" unicode="&#x118;" horiz-adv-x="644" d="M584 -215 Q557 -225 524.5 -230.5 Q492 -236 458 -236 Q392 -236 348.5 -200 Q305 -164 305 -107 Q305 -73 319.5 -46 Q334 -19 363 0 L80 0 L80 763 L572 763 L572 599 L298 599 L298 469 L552 469 L552 305 L298 305 L298 164 L584 164 L584 0 Q537 -9 507 -32 Q477 -55 477 -79 Q477 -93 487 -100.5 Q497 -108 517 -108 Q533 -108 549.5 -104 Q566 -100 584 -91 L584 -215 Z " />
<glyph glyph-name="Ecaron" unicode="&#x11a;" horiz-adv-x="644" d="M330 961 L486 1066 L566 976 L399 814 L264 814 L95 976 L177 1066 L330 961 Z M584 164 L584 0 L80 0 L80 763 L572 763 L572 599 L298 599 L298 469 L552 469 L552 305 L298 305 L298 164 L584 164 Z " />
<glyph glyph-name="F" unicode="F" horiz-adv-x="623" d="M80 763 L573 763 L573 599 L298 599 L298 469 L553 469 L553 305 L298 305 L298 0 L80 0 L80 763 Z " />
<glyph glyph-name="G" unicode="G" horiz-adv-x="775" d="M382 436 L695 436 L695 52 Q609 17 547.5 3.5 Q486 -10 420 -10 Q245 -10 142.5 93.5 Q40 197 40 381 Q40 567 148 670 Q256 773 445 773 Q513 773 570 761.5 Q627 750 689 723 L689 530 Q629 567 574 584 Q519 601 459 601 Q356 601 307 547.5 Q258 494 258 382 Q258 269 299.5 214.5 Q341 160 429 160 Q441 160 453.5 161.5 Q466 163 477 166 L477 272 L382 272 L382 436 Z " />
<glyph glyph-name="Gcircumflex" unicode="&#x11c;" horiz-adv-x="775" d="M430 919 L274 814 L194 904 L361 1066 L496 1066 L665 904 L583 814 L430 919 Z M382 436 L695 436 L695 52 Q609 17 547.5 3.5 Q486 -10 420 -10 Q245 -10 142.5 93.5 Q40 197 40 381 Q40 567 148 670 Q256 773 445 773 Q513 773 570 761.5 Q627 750 689 723 L689 530 Q629 567 574 584 Q519 601 459 601 Q356 601 307 547.5 Q258 494 258 382 Q258 269 299.5 214.5 Q341 160 429 160 Q441 160 453.5 161.5 Q466 163 477 166 L477 272 L382 272 L382 436 Z " />
<glyph glyph-name="Gbreve" unicode="&#x11e;" horiz-adv-x="775" d="M655 1043 Q655 944 596.5 883.5 Q538 823 437 823 Q335 823 276.5 883.5 Q218 944 218 1043 L340 1043 Q342 1004 367.5 981.5 Q393 959 437 959 Q481 959 506 981.5 Q531 1004 534 1043 L655 1043 Z M382 436 L695 436 L695 52 Q609 17 547.5 3.5 Q486 -10 420 -10 Q245 -10 142.5 93.5 Q40 197 40 381 Q40 567 148 670 Q256 773 445 773 Q513 773 570 761.5 Q627 750 689 723 L689 530 Q629 567 574 584 Q519 601 459 601 Q356 601 307 547.5 Q258 494 258 382 Q258 269 299.5 214.5 Q341 160 429 160 Q441 160 453.5 161.5 Q466 163 477 166 L477 272 L382 272 L382 436 Z " />
<glyph glyph-name="Gdotaccent" unicode="&#x120;" horiz-adv-x="775" d="M551 942 Q551 892 516.5 858.5 Q482 825 432 825 Q380 825 345.5 858.5 Q311 892 311 942 Q311 992 345.5 1025 Q380 1058 432 1058 Q483 1058 517 1025 Q551 992 551 942 Z M382 436 L695 436 L695 52 Q609 17 547.5 3.5 Q486 -10 420 -10 Q245 -10 142.5 93.5 Q40 197 40 381 Q40 567 148 670 Q256 773 445 773 Q513 773 570 761.5 Q627 750 689 723 L689 530 Q629 567 574 584 Q519 601 459 601 Q356 601 307 547.5 Q258 494 258 382 Q258 269 299.5 214.5 Q341 160 429 160 Q441 160 453.5 161.5 Q466 163 477 166 L477 272 L382 272 L382 436 Z " />
<glyph glyph-name="Gcommaaccent" unicode="&#x122;" horiz-adv-x="775" d="M382 436 L695 436 L695 52 Q609 17 547.5 3.5 Q486 -10 420 -10 Q245 -10 142.5 93.5 Q40 197 40 381 Q40 567 148 670 Q256 773 445 773 Q513 773 570 761.5 Q627 750 689 723 L689 530 Q629 567 574 584 Q519 601 459 601 Q356 601 307 547.5 Q258 494 258 382 Q258 269 299.5 214.5 Q341 160 429 160 Q441 160 453.5 161.5 Q466 163 477 166 L477 272 L382 272 L382 436 Z M536 -164 L336 -321 L250 -236 L398 -50 L536 -164 Z " />
<glyph glyph-name="H" unicode="H" horiz-adv-x="812" d="M298 300 L298 0 L80 0 L80 763 L298 763 L298 474 L514 474 L514 763 L732 763 L732 0 L514 0 L514 300 L298 300 Z " />
<glyph glyph-name="Hcircumflex" unicode="&#x124;" horiz-adv-x="812" d="M407 919 L251 814 L171 904 L338 1066 L473 1066 L642 904 L560 814 L407 919 Z M298 300 L298 0 L80 0 L80 763 L298 763 L298 474 L514 474 L514 763 L732 763 L732 0 L514 0 L514 300 L298 300 Z " />
<glyph glyph-name="Hbar" unicode="&#x126;" horiz-adv-x="762" d="M298 300 L298 0 L80 0 L80 545 L30 545 L30 654 L80 654 L80 763 L298 763 L298 654 L514 654 L514 763 L732 763 L732 654 L782 654 L782 545 L732 545 L732 0 L514 0 L514 300 L298 300 Z M298 474 L514 474 L514 545 L298 545 L298 474 Z " />
<glyph glyph-name="I" unicode="I" horiz-adv-x="563" d="M503 164 L503 0 L60 0 L60 164 L173 164 L173 599 L60 599 L60 763 L503 763 L503 599 L391 599 L391 164 L503 164 Z " />
<glyph glyph-name="Igrave" unicode="&#xcc;" horiz-adv-x="563" d="M285 799 L-12 938 L91 1090 L352 920 L285 799 Z M503 164 L503 0 L60 0 L60 164 L173 164 L173 599 L60 599 L60 763 L503 763 L503 599 L391 599 L391 164 L503 164 Z " />
<glyph glyph-name="Iacute" unicode="&#xcd;" horiz-adv-x="563" d="M530 938 L233 799 L166 920 L427 1090 L530 938 Z M503 164 L503 0 L60 0 L60 164 L173 164 L173 599 L60 599 L60 763 L503 763 L503 599 L391 599 L391 164 L503 164 Z " />
<glyph glyph-name="Icircumflex" unicode="&#xce;" horiz-adv-x="563" d="M282 919 L126 814 L46 904 L213 1066 L348 1066 L517 904 L435 814 L282 919 Z M503 164 L503 0 L60 0 L60 164 L173 164 L173 599 L60 599 L60 763 L503 763 L503 599 L391 599 L391 164 L503 164 Z " />
<glyph glyph-name="Idieresis" unicode="&#xcf;" horiz-adv-x="563" d="M244 944 Q244 902 215 873.5 Q186 845 143 845 Q99 845 70 873.5 Q41 902 41 944 Q41 987 70 1015.5 Q99 1044 143 1044 Q186 1044 215 1015.5 Q244 987 244 944 Z M522 944 Q522 902 492.5 873.5 Q463 845 420 845 Q376 845 347 873.5 Q318 902 318 944 Q318 986 347 1014.5 Q376 1043 420 1043 Q463 1043 492.5 1014.5 Q522 986 522 944 Z M503 164 L503 0 L60 0 L60 164 L173 164 L173 599 L60 599 L60 763 L503 763 L503 599 L391 599 L391 164 L503 164 Z " />
<glyph glyph-name="Itilde" unicode="&#x128;" horiz-adv-x="563" d="M510 1041 Q520 939 481.5 885.5 Q443 832 362 832 Q344 832 325 838 Q306 844 273 863 Q248 878 236.5 882 Q225 886 216 886 Q196 886 188.5 872.5 Q181 859 184 830 L55 830 Q45 932 83.5 985.5 Q122 1039 203 1039 Q222 1039 242 1033 Q262 1027 294 1008 Q318 995 329 991 Q340 987 349 987 Q369 987 376.5 1000 Q384 1013 381 1041 L510 1041 Z M505 164 L505 0 L62 0 L62 164 L175 164 L175 599 L62 599 L62 763 L505 763 L505 599 L393 599 L393 164 L505 164 Z " />
<glyph glyph-name="Imacron" unicode="&#x12a;" horiz-adv-x="563" d="M502 1010 L502 878 L60 878 L60 1010 L502 1010 Z M503 164 L503 0 L60 0 L60 164 L173 164 L173 599 L60 599 L60 763 L503 763 L503 599 L391 599 L391 164 L503 164 Z " />
<glyph glyph-name="Ibreve" unicode="&#x12c;" horiz-adv-x="563" d="M500 1043 Q500 944 441.5 883.5 Q383 823 282 823 Q180 823 121.5 883.5 Q63 944 63 1043 L185 1043 Q187 1004 212.5 981.5 Q238 959 282 959 Q326 959 351 981.5 Q376 1004 379 1043 L500 1043 Z M503 164 L503 0 L60 0 L60 164 L173 164 L173 599 L60 599 L60 763 L503 763 L503 599 L391 599 L391 164 L503 164 Z " />
<glyph glyph-name="Iogonek" unicode="&#x12e;" horiz-adv-x="563" d="M433 -215 Q406 -225 373.5 -230.5 Q341 -236 307 -236 Q241 -236 197.5 -200 Q154 -164 154 -107 Q154 -73 168.5 -46 Q183 -19 212 0 L60 0 L60 164 L173 164 L173 599 L60 599 L60 763 L503 763 L503 599 L391 599 L391 164 L503 164 L503 0 L433 0 Q386 -9 356 -32 Q326 -55 326 -79 Q326 -93 336 -100.5 Q346 -108 366 -108 Q382 -108 398.5 -104 Q415 -100 433 -91 L433 -215 Z " />
<glyph glyph-name="Idot" unicode="&#x130;" horiz-adv-x="563" d="M401 942 Q401 892 366.5 858.5 Q332 825 282 825 Q230 825 195.5 858.5 Q161 892 161 942 Q161 992 195.5 1025 Q230 1058 282 1058 Q333 1058 367 1025 Q401 992 401 942 Z M503 164 L503 0 L60 0 L60 164 L173 164 L173 599 L60 599 L60 763 L503 763 L503 599 L391 599 L391 164 L503 164 Z " />
<glyph glyph-name="IJ" unicode="&#x132;" horiz-adv-x="1166" d="M1086 297 Q1086 139 1019 64.5 Q952 -10 809 -10 Q756 -10 697 -0.5 Q638 9 613 22 L613 219 Q647 201 689 190 Q731 179 768 179 Q826 179 847 208 Q868 237 868 314 L868 599 L635 599 L635 763 L1086 763 L1086 297 Z M503 164 L503 0 L60 0 L60 164 L173 164 L173 599 L60 599 L60 763 L503 763 L503 599 L391 599 L391 164 L503 164 Z " />
<glyph glyph-name="J" unicode="J" horiz-adv-x="603" d="M523 297 Q523 139 456 64.5 Q389 -10 246 -10 Q193 -10 134 -0.5 Q75 9 50 22 L50 219 Q84 201 126 190 Q168 179 205 179 Q263 179 284 208 Q305 237 305 314 L305 599 L72 599 L72 763 L523 763 L523 297 Z " />
<glyph glyph-name="Jcircumflex" unicode="&#x134;" horiz-adv-x="603" d="M304 919 L148 814 L68 904 L235 1066 L370 1066 L539 904 L457 814 L304 919 Z M523 297 Q523 139 456 64.5 Q389 -10 246 -10 Q193 -10 134 -0.5 Q75 9 50 22 L50 219 Q84 201 126 190 Q168 179 205 179 Q263 179 284 208 Q305 237 305 314 L305 599 L72 599 L72 763 L523 763 L523 297 Z " />
<glyph glyph-name="K" unicode="K" horiz-adv-x="740" d="M298 291 L298 0 L80 0 L80 763 L298 763 L298 478 Q331 478 345.5 492.5 Q360 507 380 547 Q389 565 401 590 Q413 615 430 655 Q438 671 447 692.5 Q456 714 478 763 L731 763 L569 485 Q548 449 529 427 Q510 405 490 395 L490 391 Q508 380 527.5 355.5 Q547 331 570 292 L740 0 L487 0 Q463 49 452.5 70.5 Q442 92 434 109 Q415 148 402.5 173 Q390 198 380 216 Q356 260 341.5 275.5 Q327 291 298 291 Z " />
<glyph glyph-name="Kcommaaccent" unicode="&#x136;" horiz-adv-x="740" d="M298 291 L298 0 L80 0 L80 763 L298 763 L298 478 Q331 478 345.5 492.5 Q360 507 380 547 Q389 565 401 590 Q413 615 430 655 Q438 671 447 692.5 Q456 714 478 763 L731 763 L569 485 Q548 449 529 427 Q510 405 490 395 L490 391 Q508 380 527.5 355.5 Q547 331 570 292 L740 0 L487 0 Q463 49 452.5 70.5 Q442 92 434 109 Q415 148 402.5 173 Q390 198 380 216 Q356 260 341.5 275.5 Q327 291 298 291 Z M505 -164 L305 -321 L219 -236 L367 -50 L505 -164 Z " />
<glyph glyph-name="L" unicode="L" horiz-adv-x="614" d="M584 174 L584 0 L80 0 L80 763 L298 763 L298 174 L584 174 Z " />
<glyph glyph-name="Lacute" unicode="&#x139;" horiz-adv-x="614" d="M446 938 L149 799 L82 920 L343 1090 L446 938 Z M584 174 L584 0 L80 0 L80 763 L298 763 L298 174 L584 174 Z " />
<glyph glyph-name="Lcommaaccent" unicode="&#x13b;" horiz-adv-x="614" d="M584 174 L584 0 L80 0 L80 763 L298 763 L298 174 L584 174 Z M455 -164 L255 -321 L169 -236 L317 -50 L455 -164 Z " />
<glyph glyph-name="Lcaron" unicode="&#x13d;" horiz-adv-x="614" d="M584 883 L470 614 L344 653 L399 925 L584 883 Z M584 174 L584 0 L80 0 L80 763 L298 763 L298 174 L584 174 Z " />
<glyph glyph-name="Ldot" unicode="&#x13f;" horiz-adv-x="614" d="M584 174 L584 0 L80 0 L80 763 L298 763 L298 174 L584 174 Z M584 479 Q584 429 549.5 395.5 Q515 362 465 362 Q413 362 378.5 395.5 Q344 429 344 479 Q344 529 378.5 562 Q413 595 465 595 Q516 595 550 562 Q584 529 584 479 Z " />
<glyph glyph-name="Lslash" unicode="&#x141;" horiz-adv-x="614" d="M584 174 L584 0 L80 0 L80 217 L10 168 L10 298 L80 347 L80 763 L298 763 L298 498 L492 632 L492 502 L298 368 L298 174 L584 174 Z " />
<glyph glyph-name="M" unicode="M" horiz-adv-x="1022" d="M287 235 L284 0 L65 0 L118 763 L337 763 L473 371 Q487 328 496 297 Q505 266 510 242 L514 242 Q518 266 526.5 297.5 Q535 329 550 372 L684 763 L902 763 L957 0 L737 0 L732 235 Q731 283 732 328.5 Q733 374 736 417 L731 417 Q723 374 711 327.5 Q699 281 683 232 L607 0 L414 0 L335 233 Q319 281 307 327 Q295 373 288 417 L283 417 Q286 373 287 327.5 Q288 282 287 235 Z " />
<glyph glyph-name="N" unicode="N" horiz-adv-x="812" d="M288 295 L288 0 L80 0 L80 763 L280 763 L459 472 Q479 441 495.5 410 Q512 379 525 349 L529 350 Q527 381 525.5 411 Q524 441 524 471 L524 763 L732 763 L732 0 L532 0 L353 294 Q334 326 317 357 Q300 388 286 417 L282 416 Q285 386 286.5 355.5 Q288 325 288 295 Z " />
<glyph glyph-name="Ntilde" unicode="&#xd1;" horiz-adv-x="812" d="M634 1041 Q644 939 605.5 885.5 Q567 832 486 832 Q468 832 449 838 Q430 844 397 863 Q372 878 360.5 882 Q349 886 340 886 Q320 886 312.5 872.5 Q305 859 308 830 L179 830 Q169 932 207.5 985.5 Q246 1039 327 1039 Q346 1039 366 1033 Q386 1027 418 1008 Q442 995 453 991 Q464 987 473 987 Q493 987 500.5 1000 Q508 1013 505 1041 L634 1041 Z M288 295 L288 0 L80 0 L80 763 L280 763 L459 472 Q479 441 495.5 410 Q512 379 525 349 L529 350 Q527 381 525.5 411 Q524 441 524 471 L524 763 L732 763 L732 0 L532 0 L353 294 Q334 326 317 357 Q300 388 286 417 L282 416 Q285 386 286.5 355.5 Q288 325 288 295 Z " />
<glyph glyph-name="Nacute" unicode="&#x143;" horiz-adv-x="812" d="M693 938 L396 799 L329 920 L590 1090 L693 938 Z M288 295 L288 0 L80 0 L80 763 L280 763 L459 472 Q479 441 495.5 410 Q512 379 525 349 L529 350 Q527 381 525.5 411 Q524 441 524 471 L524 763 L732 763 L732 0 L532 0 L353 294 Q334 326 317 357 Q300 388 286 417 L282 416 Q285 386 286.5 355.5 Q288 325 288 295 Z " />
<glyph glyph-name="Ncommaaccent" unicode="&#x145;" horiz-adv-x="812" d="M288 295 L288 0 L80 0 L80 763 L280 763 L459 472 Q479 441 495.5 410 Q512 379 525 349 L529 350 Q527 381 525.5 411 Q524 441 524 471 L524 763 L732 763 L732 0 L532 0 L353 294 Q334 326 317 357 Q300 388 286 417 L282 416 Q285 386 286.5 355.5 Q288 325 288 295 Z M547 -164 L347 -321 L261 -236 L409 -50 L547 -164 Z " />
<glyph glyph-name="Ncaron" unicode="&#x147;" horiz-adv-x="812" d="M406 961 L562 1066 L642 976 L475 814 L340 814 L171 976 L253 1066 L406 961 Z M288 295 L288 0 L80 0 L80 763 L280 763 L459 472 Q479 441 495.5 410 Q512 379 525 349 L529 350 Q527 381 525.5 411 Q524 441 524 471 L524 763 L732 763 L732 0 L532 0 L353 294 Q334 326 317 357 Q300 388 286 417 L282 416 Q285 386 286.5 355.5 Q288 325 288 295 Z " />
<glyph glyph-name="Eng" unicode="&#x14a;" horiz-adv-x="812" d="M524 763 L732 763 L732 37 Q732 -102 676 -168.5 Q620 -235 502 -235 Q458 -235 404 -225.5 Q350 -216 326 -203 L326 -6 Q360 -25 396 -35.5 Q432 -46 461 -46 Q490 -46 507 -35.5 Q524 -25 532 0 L353 294 Q334 326 317 357 Q300 388 286 417 L282 416 Q285 386 286.5 355.5 Q288 325 288 295 L288 0 L80 0 L80 763 L280 763 L459 472 Q479 441 495.5 410 Q512 379 525 349 L529 350 Q527 381 525.5 411 Q524 441 524 471 L524 763 Z " />
<glyph glyph-name="O" unicode="O" horiz-adv-x="828" d="M788 381 Q788 202 687.5 96 Q587 -10 413 -10 Q239 -10 139.5 95.5 Q40 201 40 381 Q40 561 140 667 Q240 773 413 773 Q587 773 687.5 666.5 Q788 560 788 381 Z M570 381 Q570 485 529 542 Q488 599 413 599 Q338 599 298 542.5 Q258 486 258 381 Q258 276 298 220 Q338 164 413 164 Q489 164 529.5 220.5 Q570 277 570 381 Z " />
<glyph glyph-name="Ograve" unicode="&#xd2;" horiz-adv-x="828" d="M463 799 L166 938 L269 1090 L530 920 L463 799 Z M788 381 Q788 202 687.5 96 Q587 -10 413 -10 Q239 -10 139.5 95.5 Q40 201 40 381 Q40 561 140 667 Q240 773 413 773 Q587 773 687.5 666.5 Q788 560 788 381 Z M570 381 Q570 485 529 542 Q488 599 413 599 Q338 599 298 542.5 Q258 486 258 381 Q258 276 298 220 Q338 164 413 164 Q489 164 529.5 220.5 Q570 277 570 381 Z " />
<glyph glyph-name="Oacute" unicode="&#xd3;" horiz-adv-x="828" d="M676 938 L379 799 L312 920 L573 1090 L676 938 Z M788 381 Q788 202 687.5 96 Q587 -10 413 -10 Q239 -10 139.5 95.5 Q40 201 40 381 Q40 561 140 667 Q240 773 413 773 Q587 773 687.5 666.5 Q788 560 788 381 Z M570 381 Q570 485 529 542 Q488 599 413 599 Q338 599 298 542.5 Q258 486 258 381 Q258 276 298 220 Q338 164 413 164 Q489 164 529.5 220.5 Q570 277 570 381 Z " />
<glyph glyph-name="Ocircumflex" unicode="&#xd4;" horiz-adv-x="828" d="M415 919 L259 814 L179 904 L346 1066 L481 1066 L650 904 L568 814 L415 919 Z M788 381 Q788 202 687.5 96 Q587 -10 413 -10 Q239 -10 139.5 95.5 Q40 201 40 381 Q40 561 140 667 Q240 773 413 773 Q587 773 687.5 666.5 Q788 560 788 381 Z M570 381 Q570 485 529 542 Q488 599 413 599 Q338 599 298 542.5 Q258 486 258 381 Q258 276 298 220 Q338 164 413 164 Q489 164 529.5 220.5 Q570 277 570 381 Z " />
<glyph glyph-name="Otilde" unicode="&#xd5;" horiz-adv-x="828" d="M642 1042 Q652 940 613.5 886.5 Q575 833 494 833 Q476 833 457 839 Q438 845 405 864 Q380 879 368.5 883 Q357 887 348 887 Q328 887 320.5 873.5 Q313 860 316 831 L187 831 Q177 933 215.5 986.5 Q254 1040 335 1040 Q354 1040 374 1034 Q394 1028 426 1009 Q450 996 461 992 Q472 988 481 988 Q501 988 508.5 1001 Q516 1014 513 1042 L642 1042 Z M788 381 Q788 202 687.5 96 Q587 -10 413 -10 Q239 -10 139.5 95.5 Q40 201 40 381 Q40 561 140 667 Q240 773 413 773 Q587 773 687.5 666.5 Q788 560 788 381 Z M570 381 Q570 485 529 542 Q488 599 413 599 Q338 599 298 542.5 Q258 486 258 381 Q258 276 298 220 Q338 164 413 164 Q489 164 529.5 220.5 Q570 277 570 381 Z " />
<glyph glyph-name="Odieresis" unicode="&#xd6;" horiz-adv-x="828" d="M377 944 Q377 902 348 873.5 Q319 845 276 845 Q232 845 203 873.5 Q174 902 174 944 Q174 987 203 1015.5 Q232 1044 276 1044 Q319 1044 348 1015.5 Q377 987 377 944 Z M655 944 Q655 902 625.5 873.5 Q596 845 553 845 Q509 845 480 873.5 Q451 902 451 944 Q451 986 480 1014.5 Q509 1043 553 1043 Q596 1043 625.5 1014.5 Q655 986 655 944 Z M788 381 Q788 202 687.5 96 Q587 -10 413 -10 Q239 -10 139.5 95.5 Q40 201 40 381 Q40 561 140 667 Q240 773 413 773 Q587 773 687.5 666.5 Q788 560 788 381 Z M570 381 Q570 485 529 542 Q488 599 413 599 Q338 599 298 542.5 Q258 486 258 381 Q258 276 298 220 Q338 164 413 164 Q489 164 529.5 220.5 Q570 277 570 381 Z " />
<glyph glyph-name="Omacron" unicode="&#x14c;" horiz-adv-x="828" d="M635 1010 L635 878 L193 878 L193 1010 L635 1010 Z M788 381 Q788 202 687.5 96 Q587 -10 413 -10 Q239 -10 139.5 95.5 Q40 201 40 381 Q40 561 140 667 Q240 773 413 773 Q587 773 687.5 666.5 Q788 560 788 381 Z M570 381 Q570 485 529 542 Q488 599 413 599 Q338 599 298 542.5 Q258 486 258 381 Q258 276 298 220 Q338 164 413 164 Q489 164 529.5 220.5 Q570 277 570 381 Z " />
<glyph glyph-name="Obreve" unicode="&#x14e;" horiz-adv-x="828" d="M633 1043 Q633 944 574.5 883.5 Q516 823 415 823 Q313 823 254.5 883.5 Q196 944 196 1043 L318 1043 Q320 1004 345.5 981.5 Q371 959 415 959 Q459 959 484 981.5 Q509 1004 512 1043 L633 1043 Z M788 381 Q788 202 687.5 96 Q587 -10 413 -10 Q239 -10 139.5 95.5 Q40 201 40 381 Q40 561 140 667 Q240 773 413 773 Q587 773 687.5 666.5 Q788 560 788 381 Z M570 381 Q570 485 529 542 Q488 599 413 599 Q338 599 298 542.5 Q258 486 258 381 Q258 276 298 220 Q338 164 413 164 Q489 164 529.5 220.5 Q570 277 570 381 Z " />
<glyph glyph-name="Ohungarumlaut" unicode="&#x150;" horiz-adv-x="828" d="M515 985 L256 784 L164 887 L382 1111 L515 985 Z M841 941 L555 784 L480 900 L729 1087 L841 941 Z M788 381 Q788 202 687.5 96 Q587 -10 413 -10 Q239 -10 139.5 95.5 Q40 201 40 381 Q40 561 140 667 Q240 773 413 773 Q587 773 687.5 666.5 Q788 560 788 381 Z M570 381 Q570 485 529 542 Q488 599 413 599 Q338 599 298 542.5 Q258 486 258 381 Q258 276 298 220 Q338 164 413 164 Q489 164 529.5 220.5 Q570 277 570 381 Z " />
<glyph glyph-name="Oslash" unicode="&#xd8;" horiz-adv-x="828" d="M413 -10 Q351 -10 297.5 4 Q244 18 202 44 L149 -20 L71 40 L127 108 Q85 158 62.5 227.5 Q40 297 40 381 Q40 561 140 667 Q240 773 413 773 Q475 773 529 758.5 Q583 744 626 718 L679 783 L757 723 L700 653 Q743 603 765.5 534 Q788 465 788 381 Q788 202 687.5 96 Q587 -10 413 -10 Z M258 381 Q258 353 261 328 Q264 303 269 283 L504 569 Q486 584 463 591.5 Q440 599 413 599 Q338 599 298 542.5 Q258 486 258 381 Z M570 381 Q570 409 567 434 Q564 459 558 480 L323 193 Q341 179 363.5 171.5 Q386 164 413 164 Q489 164 529.5 220.5 Q570 277 570 381 Z " />
<glyph glyph-name="Oslashacute" unicode="&#x1fe;" horiz-adv-x="828" d="M710 938 L413 799 L346 920 L607 1090 L710 938 Z M413 -10 Q351 -10 297.5 4 Q244 18 202 44 L149 -20 L71 40 L127 108 Q85 158 62.5 227.5 Q40 297 40 381 Q40 561 140 667 Q240 773 413 773 Q475 773 529 758.5 Q583 744 626 718 L679 783 L757 723 L700 653 Q743 603 765.5 534 Q788 465 788 381 Q788 202 687.5 96 Q587 -10 413 -10 Z M258 381 Q258 353 261 328 Q264 303 269 283 L504 569 Q486 584 463 591.5 Q440 599 413 599 Q338 599 298 542.5 Q258 486 258 381 Z M570 381 Q570 409 567 434 Q564 459 558 480 L323 193 Q341 179 363.5 171.5 Q386 164 413 164 Q489 164 529.5 220.5 Q570 277 570 381 Z " />
<glyph glyph-name="OE" unicode="&#x152;" horiz-adv-x="1134" d="M570 0 L570 17 Q536 4 496.5 -3 Q457 -10 413 -10 Q239 -10 139.5 95.5 Q40 201 40 381 Q40 561 140 667 Q240 773 413 773 Q457 773 496.5 766 Q536 759 570 745 L570 763 L1062 763 L1062 599 L788 599 L788 469 L1042 469 L1042 305 L788 305 L788 164 L1074 164 L1074 0 L570 0 Z M570 381 Q570 485 529 542 Q488 599 413 599 Q338 599 298 542.5 Q258 486 258 381 Q258 276 298 220 Q338 164 413 164 Q489 164 529.5 220.5 Q570 277 570 381 Z " />
<glyph glyph-name="P" unicode="P" horiz-adv-x="695" d="M297 223 L297 0 L80 0 L80 763 L351 763 Q503 763 584 696 Q665 629 665 500 Q665 367 579.5 295 Q494 223 340 223 L297 223 Z M351 593 L297 593 L297 393 L340 393 Q392 393 420 419.5 Q448 446 448 496 Q448 544 423 568.5 Q398 593 351 593 Z " />
<glyph glyph-name="Thorn" unicode="&#xde;" horiz-adv-x="695" d="M351 654 Q503 654 584 587 Q665 520 665 391 Q665 258 579.5 186 Q494 114 340 114 L297 114 L297 0 L80 0 L80 763 L297 763 L297 654 L351 654 Z M351 484 L297 484 L297 284 L340 284 Q392 284 420 310.5 Q448 337 448 387 Q448 435 423 459.5 Q398 484 351 484 Z " />
<glyph glyph-name="Q" unicode="Q" horiz-adv-x="828" d="M807 56 L678 -61 L599 30 Q560 11 513 0.5 Q466 -10 413 -10 Q239 -10 139.5 95.5 Q40 201 40 381 Q40 561 140 667 Q240 773 413 773 Q587 773 687.5 666.5 Q788 560 788 381 Q788 307 770 244.5 Q752 182 719 134 L807 56 Z M258 381 Q258 276 298 220 Q338 164 413 164 Q426 164 438 165.5 Q450 167 460 171 L365 256 L491 374 L561 294 Q566 313 568 335 Q570 357 570 381 Q570 485 529 542 Q488 599 413 599 Q338 599 298 542.5 Q258 486 258 381 Z " />
<glyph glyph-name="R" unicode="R" horiz-adv-x="731" d="M297 251 L297 0 L80 0 L80 763 L349 763 Q505 763 585 701 Q665 639 665 517 Q665 449 637 395 Q609 341 558 310 L711 0 L468 0 L362 253 Q352 252 340 251.5 Q328 251 318 251 L297 251 Z M349 593 L297 593 L297 421 L338 421 Q392 421 420 443.5 Q448 466 448 510 Q448 550 422 571.5 Q396 593 349 593 Z " />
<glyph glyph-name="Racute" unicode="&#x154;" horiz-adv-x="731" d="M608 938 L311 799 L244 920 L505 1090 L608 938 Z M297 251 L297 0 L80 0 L80 763 L349 763 Q505 763 585 701 Q665 639 665 517 Q665 449 637 395 Q609 341 558 310 L711 0 L468 0 L362 253 Q352 252 340 251.5 Q328 251 318 251 L297 251 Z M349 593 L297 593 L297 421 L338 421 Q392 421 420 443.5 Q448 466 448 510 Q448 550 422 571.5 Q396 593 349 593 Z " />
<glyph glyph-name="Rcommaaccent" unicode="&#x156;" horiz-adv-x="731" d="M297 251 L297 0 L80 0 L80 763 L349 763 Q505 763 585 701 Q665 639 665 517 Q665 449 637 395 Q609 341 558 310 L711 0 L468 0 L362 253 Q352 252 340 251.5 Q328 251 318 251 L297 251 Z M349 593 L297 593 L297 421 L338 421 Q392 421 420 443.5 Q448 466 448 510 Q448 550 422 571.5 Q396 593 349 593 Z M496 -164 L296 -321 L210 -236 L358 -50 L496 -164 Z " />
<glyph glyph-name="Rcaron" unicode="&#x158;" horiz-adv-x="731" d="M349 961 L505 1066 L585 976 L418 814 L283 814 L114 976 L196 1066 L349 961 Z M297 251 L297 0 L80 0 L80 763 L349 763 Q505 763 585 701 Q665 639 665 517 Q665 449 637 395 Q609 341 558 310 L711 0 L468 0 L362 253 Q352 252 340 251.5 Q328 251 318 251 L297 251 Z M349 593 L297 593 L297 421 L338 421 Q392 421 420 443.5 Q448 466 448 510 Q448 550 422 571.5 Q396 593 349 593 Z " />
<glyph glyph-name="S" unicode="S" horiz-adv-x="644" d="M594 234 Q594 114 513 52 Q432 -10 275 -10 Q212 -10 158 -1 Q104 8 50 27 L50 213 Q99 185 158 170 Q217 155 278 155 Q326 155 350 170 Q374 185 374 215 Q374 236 354.5 253.5 Q335 271 266 299 Q200 327 168.5 345.5 Q137 364 114 386 Q82 417 66 456.5 Q50 496 50 545 Q50 653 129 713 Q208 773 350 773 Q408 773 464 761.5 Q520 750 561 729 L561 533 Q522 566 464 585.5 Q406 605 347 605 Q305 605 285 593.5 Q265 582 265 558 Q265 535 286.5 515.5 Q308 496 382 464 Q445 437 475.5 419.5 Q506 402 528 383 Q561 353 577.5 316 Q594 279 594 234 Z " />
<glyph glyph-name="Sacute" unicode="&#x15a;" horiz-adv-x="644" d="M577 938 L280 799 L213 920 L474 1090 L577 938 Z M594 234 Q594 114 513 52 Q432 -10 275 -10 Q212 -10 158 -1 Q104 8 50 27 L50 213 Q99 185 158 170 Q217 155 278 155 Q326 155 350 170 Q374 185 374 215 Q374 236 354.5 253.5 Q335 271 266 299 Q200 327 168.5 345.5 Q137 364 114 386 Q82 417 66 456.5 Q50 496 50 545 Q50 653 129 713 Q208 773 350 773 Q408 773 464 761.5 Q520 750 561 729 L561 533 Q522 566 464 585.5 Q406 605 347 605 Q305 605 285 593.5 Q265 582 265 558 Q265 535 286.5 515.5 Q308 496 382 464 Q445 437 475.5 419.5 Q506 402 528 383 Q561 353 577.5 316 Q594 279 594 234 Z " />
<glyph glyph-name="Scircumflex" unicode="&#x15c;" horiz-adv-x="644" d="M323 919 L167 814 L87 904 L254 1066 L389 1066 L558 904 L476 814 L323 919 Z M594 234 Q594 114 513 52 Q432 -10 275 -10 Q212 -10 158 -1 Q104 8 50 27 L50 213 Q99 185 158 170 Q217 155 278 155 Q326 155 350 170 Q374 185 374 215 Q374 236 354.5 253.5 Q335 271 266 299 Q200 327 168.5 345.5 Q137 364 114 386 Q82 417 66 456.5 Q50 496 50 545 Q50 653 129 713 Q208 773 350 773 Q408 773 464 761.5 Q520 750 561 729 L561 533 Q522 566 464 585.5 Q406 605 347 605 Q305 605 285 593.5 Q265 582 265 558 Q265 535 286.5 515.5 Q308 496 382 464 Q445 437 475.5 419.5 Q506 402 528 383 Q561 353 577.5 316 Q594 279 594 234 Z " />
<glyph glyph-name="Scedilla" unicode="&#x15e;" horiz-adv-x="644" d="M488 -107 Q488 -164 444.5 -200 Q401 -236 335 -236 Q301 -236 268.5 -230.5 Q236 -225 209 -215 L209 -91 Q229 -100 243.5 -104 Q258 -108 272 -108 Q293 -108 304.5 -96 Q316 -84 316 -63 Q316 -49 311 -36.5 Q306 -24 294 -10 Q289 -10 284.5 -10 Q280 -10 275 -10 Q212 -10 158 -1 Q104 8 50 27 L50 213 Q99 185 158 170 Q217 155 278 155 Q326 155 350 170 Q374 185 374 215 Q374 236 354.5 253.5 Q335 271 266 299 Q200 327 168.5 345.5 Q137 364 114 386 Q82 417 66 456.5 Q50 496 50 545 Q50 653 129 713 Q208 773 350 773 Q408 773 464 761.5 Q520 750 561 729 L561 533 Q522 566 464 585.5 Q406 605 347 605 Q305 605 285 593.5 Q265 582 265 558 Q265 535 286.5 515.5 Q308 496 382 464 Q445 437 475.5 419.5 Q506 402 528 383 Q561 353 577.5 316 Q594 279 594 234 Q594 147 551.5 90.5 Q509 34 426 9 Q439 -1 445.5 -7.5 Q452 -14 458 -21 Q473 -40 480.5 -61 Q488 -82 488 -107 Z " />
<glyph glyph-name="Scaron" unicode="&#x160;" horiz-adv-x="644" d="M322 961 L478 1066 L558 976 L391 814 L256 814 L87 976 L169 1066 L322 961 Z M594 234 Q594 114 513 52 Q432 -10 275 -10 Q212 -10 158 -1 Q104 8 50 27 L50 213 Q99 185 158 170 Q217 155 278 155 Q326 155 350 170 Q374 185 374 215 Q374 236 354.5 253.5 Q335 271 266 299 Q200 327 168.5 345.5 Q137 364 114 386 Q82 417 66 456.5 Q50 496 50 545 Q50 653 129 713 Q208 773 350 773 Q408 773 464 761.5 Q520 750 561 729 L561 533 Q522 566 464 585.5 Q406 605 347 605 Q305 605 285 593.5 Q265 582 265 558 Q265 535 286.5 515.5 Q308 496 382 464 Q445 437 475.5 419.5 Q506 402 528 383 Q561 353 577.5 316 Q594 279 594 234 Z " />
<glyph glyph-name="Scommaaccent" unicode="&#x218;" horiz-adv-x="644" d="M594 234 Q594 114 513 52 Q432 -10 275 -10 Q212 -10 158 -1 Q104 8 50 27 L50 213 Q99 185 158 170 Q217 155 278 155 Q326 155 350 170 Q374 185 374 215 Q374 236 354.5 253.5 Q335 271 266 299 Q200 327 168.5 345.5 Q137 364 114 386 Q82 417 66 456.5 Q50 496 50 545 Q50 653 129 713 Q208 773 350 773 Q408 773 464 761.5 Q520 750 561 729 L561 533 Q522 566 464 585.5 Q406 605 347 605 Q305 605 285 593.5 Q265 582 265 558 Q265 535 286.5 515.5 Q308 496 382 464 Q445 437 475.5 419.5 Q506 402 528 383 Q561 353 577.5 316 Q594 279 594 234 Z M471 -164 L271 -321 L185 -236 L333 -50 L471 -164 Z " />
<glyph glyph-name="T" unicode="T" horiz-adv-x="608" d="M412 589 L412 0 L196 0 L196 589 L0 589 L0 763 L608 763 L608 589 L412 589 Z " />
<glyph glyph-name="Tcommaaccent" unicode="&#x21a;" horiz-adv-x="608" d="M412 589 L412 0 L196 0 L196 589 L0 589 L0 763 L608 763 L608 589 L412 589 Z M427 -164 L227 -321 L141 -236 L289 -50 L427 -164 Z " />
<glyph glyph-name="Tcaron" unicode="&#x164;" horiz-adv-x="608" d="M304 961 L460 1066 L540 976 L373 814 L238 814 L69 976 L151 1066 L304 961 Z M412 589 L412 0 L196 0 L196 589 L0 589 L0 763 L608 763 L608 589 L412 589 Z " />
<glyph glyph-name="Tbar" unicode="&#x166;" horiz-adv-x="608" d="M598 339 L412 339 L412 0 L196 0 L196 339 L10 339 L10 448 L196 448 L196 589 L0 589 L0 763 L608 763 L608 589 L412 589 L412 448 L598 448 L598 339 Z " />
<glyph glyph-name="U" unicode="U" horiz-adv-x="812" d="M732 382 Q732 159 658.5 74.5 Q585 -10 406 -10 Q227 -10 153.5 76 Q80 162 80 382 L80 763 L298 763 L298 367 Q298 311 301 285 Q304 259 310 241 Q321 208 345 192 Q369 176 407 176 Q444 176 467.5 192 Q491 208 502 241 Q509 260 511.5 285.5 Q514 311 514 367 L514 763 L732 763 L732 382 Z " />
<glyph glyph-name="Ugrave" unicode="&#xd9;" horiz-adv-x="812" d="M429 799 L132 938 L235 1090 L496 920 L429 799 Z M732 382 Q732 159 658.5 74.5 Q585 -10 406 -10 Q227 -10 153.5 76 Q80 162 80 382 L80 763 L298 763 L298 367 Q298 311 301 285 Q304 259 310 241 Q321 208 345 192 Q369 176 407 176 Q444 176 467.5 192 Q491 208 502 241 Q509 260 511.5 285.5 Q514 311 514 367 L514 763 L732 763 L732 382 Z " />
<glyph glyph-name="Uacute" unicode="&#xda;" horiz-adv-x="812" d="M697 938 L400 799 L333 920 L594 1090 L697 938 Z M732 382 Q732 159 658.5 74.5 Q585 -10 406 -10 Q227 -10 153.5 76 Q80 162 80 382 L80 763 L298 763 L298 367 Q298 311 301 285 Q304 259 310 241 Q321 208 345 192 Q369 176 407 176 Q444 176 467.5 192 Q491 208 502 241 Q509 260 511.5 285.5 Q514 311 514 367 L514 763 L732 763 L732 382 Z " />
<glyph glyph-name="Ucircumflex" unicode="&#xdb;" horiz-adv-x="812" d="M407 919 L251 814 L171 904 L338 1066 L473 1066 L642 904 L560 814 L407 919 Z M732 382 Q732 159 658.5 74.5 Q585 -10 406 -10 Q227 -10 153.5 76 Q80 162 80 382 L80 763 L298 763 L298 367 Q298 311 301 285 Q304 259 310 241 Q321 208 345 192 Q369 176 407 176 Q444 176 467.5 192 Q491 208 502 241 Q509 260 511.5 285.5 Q514 311 514 367 L514 763 L732 763 L732 382 Z " />
<glyph glyph-name="Udieresis" unicode="&#xdc;" horiz-adv-x="812" d="M369 944 Q369 902 340 873.5 Q311 845 268 845 Q224 845 195 873.5 Q166 902 166 944 Q166 987 195 1015.5 Q224 1044 268 1044 Q311 1044 340 1015.5 Q369 987 369 944 Z M647 944 Q647 902 617.5 873.5 Q588 845 545 845 Q501 845 472 873.5 Q443 902 443 944 Q443 986 472 1014.5 Q501 1043 545 1043 Q588 1043 617.5 1014.5 Q647 986 647 944 Z M732 382 Q732 159 658.5 74.5 Q585 -10 406 -10 Q227 -10 153.5 76 Q80 162 80 382 L80 763 L298 763 L298 367 Q298 311 301 285 Q304 259 310 241 Q321 208 345 192 Q369 176 407 176 Q444 176 467.5 192 Q491 208 502 241 Q509 260 511.5 285.5 Q514 311 514 367 L514 763 L732 763 L732 382 Z " />
<glyph glyph-name="Utilde" unicode="&#x168;" horiz-adv-x="812" d="M633 1041 Q643 939 604.5 885.5 Q566 832 485 832 Q467 832 448 838 Q429 844 396 863 Q371 878 359.5 882 Q348 886 339 886 Q319 886 311.5 872.5 Q304 859 307 830 L178 830 Q168 932 206.5 985.5 Q245 1039 326 1039 Q345 1039 365 1033 Q385 1027 417 1008 Q441 995 452 991 Q463 987 472 987 Q492 987 499.5 1000 Q507 1013 504 1041 L633 1041 Z M732 382 Q732 159 658.5 74.5 Q585 -10 406 -10 Q227 -10 153.5 76 Q80 162 80 382 L80 763 L298 763 L298 367 Q298 311 301 285 Q304 259 310 241 Q321 208 345 192 Q369 176 407 176 Q444 176 467.5 192 Q491 208 502 241 Q509 260 511.5 285.5 Q514 311 514 367 L514 763 L732 763 L732 382 Z " />
<glyph glyph-name="Umacron" unicode="&#x16a;" horiz-adv-x="812" d="M627 1010 L627 878 L185 878 L185 1010 L627 1010 Z M732 382 Q732 159 658.5 74.5 Q585 -10 406 -10 Q227 -10 153.5 76 Q80 162 80 382 L80 763 L298 763 L298 367 Q298 311 301 285 Q304 259 310 241 Q321 208 345 192 Q369 176 407 176 Q444 176 467.5 192 Q491 208 502 241 Q509 260 511.5 285.5 Q514 311 514 367 L514 763 L732 763 L732 382 Z " />
<glyph glyph-name="Ubreve" unicode="&#x16c;" horiz-adv-x="812" d="M625 1043 Q625 944 566.5 883.5 Q508 823 407 823 Q305 823 246.5 883.5 Q188 944 188 1043 L310 1043 Q312 1004 337.5 981.5 Q363 959 407 959 Q451 959 476 981.5 Q501 1004 504 1043 L625 1043 Z M732 380 Q732 157 658.5 72.5 Q585 -12 406 -12 Q227 -12 153.5 74 Q80 160 80 380 L80 761 L298 761 L298 365 Q298 309 301 283 Q304 257 310 239 Q321 206 345 190 Q369 174 407 174 Q444 174 467.5 190 Q491 206 502 239 Q509 258 511.5 283.5 Q514 309 514 365 L514 761 L732 761 L732 380 Z " />
<glyph glyph-name="Uring" unicode="&#x16e;" horiz-adv-x="812" d="M406 1079 Q494 1079 549.5 1039.5 Q605 1000 605 940 Q605 880 549.5 840.5 Q494 801 406 801 Q318 801 262.5 840.5 Q207 880 207 940 Q207 1000 262.5 1039.5 Q318 1079 406 1079 Z M406 989 Q370 989 348.5 976 Q327 963 327 940 Q327 917 348.5 904 Q370 891 406 891 Q442 891 463.5 904 Q485 917 485 940 Q485 963 463.5 976 Q442 989 406 989 Z M732 382 Q732 159 658.5 74.5 Q585 -10 406 -10 Q227 -10 153.5 76 Q80 162 80 382 L80 763 L298 763 L298 367 Q298 311 301 285 Q304 259 310 241 Q321 208 345 192 Q369 176 407 176 Q444 176 467.5 192 Q491 208 502 241 Q509 260 511.5 285.5 Q514 311 514 367 L514 763 L732 763 L732 382 Z " />
<glyph glyph-name="Uhungarumlaut" unicode="&#x170;" horiz-adv-x="812" d="M504 985 L245 784 L153 887 L371 1111 L504 985 Z M830 941 L544 784 L469 900 L718 1087 L830 941 Z M732 382 Q732 159 658.5 74.5 Q585 -10 406 -10 Q227 -10 153.5 76 Q80 162 80 382 L80 763 L298 763 L298 367 Q298 311 301 285 Q304 259 310 241 Q321 208 345 192 Q369 176 407 176 Q444 176 467.5 192 Q491 208 502 241 Q509 260 511.5 285.5 Q514 311 514 367 L514 763 L732 763 L732 382 Z " />
<glyph glyph-name="Uogonek" unicode="&#x172;" horiz-adv-x="812" d="M518 -215 Q491 -225 458.5 -230.5 Q426 -236 392 -236 Q326 -236 282.5 -200 Q239 -164 239 -107 Q239 -73 253 -46.5 Q267 -20 296 -1 Q179 22 129.5 111 Q80 200 80 382 L80 763 L298 763 L298 367 Q298 311 301 285 Q304 259 310 241 Q321 208 345 192 Q369 176 407 176 Q444 176 467.5 192 Q491 208 502 241 Q509 260 511.5 285.5 Q514 311 514 367 L514 763 L732 763 L732 382 Q732 192 679.5 104 Q627 16 503 -4 Q462 -14 436.5 -35.5 Q411 -57 411 -79 Q411 -93 421 -100.5 Q431 -108 451 -108 Q467 -108 483.5 -104 Q500 -100 518 -91 L518 -215 Z " />
<glyph glyph-name="V" unicode="V" horiz-adv-x="774" d="M754 763 L498 0 L276 0 L20 763 L245 763 L386 224 L390 224 L529 763 L754 763 Z " />
<glyph glyph-name="W" unicode="W" horiz-adv-x="1072" d="M533 450 L413 0 L195 0 L40 763 L260 763 L297 510 Q303 470 308.5 414 Q314 358 318 286 L323 286 Q335 354 347 410 Q359 466 371 511 L440 763 L633 763 L705 510 Q718 466 730 410 Q742 354 754 286 L759 286 Q763 358 768 414 Q773 470 778 510 L813 763 L1032 763 L879 0 L660 0 L537 450 L533 450 Z " />
<glyph glyph-name="Wcircumflex" unicode="&#x174;" horiz-adv-x="1072" d="M537 919 L381 814 L301 904 L468 1066 L603 1066 L772 904 L690 814 L537 919 Z M533 450 L413 0 L195 0 L40 763 L260 763 L297 510 Q303 470 308.5 414 Q314 358 318 286 L323 286 Q335 354 347 410 Q359 466 371 511 L440 763 L633 763 L705 510 Q718 466 730 410 Q742 354 754 286 L759 286 Q763 358 768 414 Q773 470 778 510 L813 763 L1032 763 L879 0 L660 0 L537 450 L533 450 Z " />
<glyph glyph-name="Wgrave" unicode="&#x1e80;" horiz-adv-x="1072" d="M581 799 L284 938 L387 1090 L648 920 L581 799 Z M533 450 L413 0 L195 0 L40 763 L260 763 L297 510 Q303 470 308.5 414 Q314 358 318 286 L323 286 Q335 354 347 410 Q359 466 371 511 L440 763 L633 763 L705 510 Q718 466 730 410 Q742 354 754 286 L759 286 Q763 358 768 414 Q773 470 778 510 L813 763 L1032 763 L879 0 L660 0 L537 450 L533 450 Z " />
<glyph glyph-name="Wacute" unicode="&#x1e82;" horiz-adv-x="1072" d="M784 938 L487 799 L420 920 L681 1090 L784 938 Z M533 450 L413 0 L195 0 L40 763 L260 763 L297 510 Q303 470 308.5 414 Q314 358 318 286 L323 286 Q335 354 347 410 Q359 466 371 511 L440 763 L633 763 L705 510 Q718 466 730 410 Q742 354 754 286 L759 286 Q763 358 768 414 Q773 470 778 510 L813 763 L1032 763 L879 0 L660 0 L537 450 L533 450 Z " />
<glyph glyph-name="Wdieresis" unicode="&#x1e84;" horiz-adv-x="1072" d="M499 944 Q499 902 470 873.5 Q441 845 398 845 Q354 845 325 873.5 Q296 902 296 944 Q296 987 325 1015.5 Q354 1044 398 1044 Q441 1044 470 1015.5 Q499 987 499 944 Z M777 944 Q777 902 747.5 873.5 Q718 845 675 845 Q631 845 602 873.5 Q573 902 573 944 Q573 986 602 1014.5 Q631 1043 675 1043 Q718 1043 747.5 1014.5 Q777 986 777 944 Z M533 450 L413 0 L195 0 L40 763 L260 763 L297 510 Q303 470 308.5 414 Q314 358 318 286 L323 286 Q335 354 347 410 Q359 466 371 511 L440 763 L633 763 L705 510 Q718 466 730 410 Q742 354 754 286 L759 286 Q763 358 768 414 Q773 470 778 510 L813 763 L1032 763 L879 0 L660 0 L537 450 L533 450 Z " />
<glyph glyph-name="X" unicode="X" horiz-adv-x="747" d="M365 221 L246 0 L10 0 L255 405 L22 763 L259 763 L379 557 L383 557 L496 763 L731 763 L489 378 L737 0 L501 0 L368 221 L365 221 Z " />
<glyph glyph-name="Y" unicode="Y" horiz-adv-x="724" d="M471 281 L471 0 L255 0 L255 281 L-10 763 L233 763 L329 555 Q337 537 343.5 519 Q350 501 360 466 L366 466 Q374 495 381 515 Q388 535 397 555 L490 763 L734 763 L471 281 Z " />
<glyph glyph-name="Yacute" unicode="&#xdd;" horiz-adv-x="724" d="M644 938 L347 799 L280 920 L541 1090 L644 938 Z M471 281 L471 0 L255 0 L255 281 L-10 763 L233 763 L329 555 Q337 537 343.5 519 Q350 501 360 466 L366 466 Q374 495 381 515 Q388 535 397 555 L490 763 L734 763 L471 281 Z " />
<glyph glyph-name="Ycircumflex" unicode="&#x176;" horiz-adv-x="724" d="M363 919 L207 814 L127 904 L294 1066 L429 1066 L598 904 L516 814 L363 919 Z M471 281 L471 0 L255 0 L255 281 L-10 763 L233 763 L329 555 Q337 537 343.5 519 Q350 501 360 466 L366 466 Q374 495 381 515 Q388 535 397 555 L490 763 L734 763 L471 281 Z " />
<glyph glyph-name="Ydieresis" unicode="&#x178;" horiz-adv-x="724" d="M325 944 Q325 902 296 873.5 Q267 845 224 845 Q180 845 151 873.5 Q122 902 122 944 Q122 987 151 1015.5 Q180 1044 224 1044 Q267 1044 296 1015.5 Q325 987 325 944 Z M603 944 Q603 902 573.5 873.5 Q544 845 501 845 Q457 845 428 873.5 Q399 902 399 944 Q399 986 428 1014.5 Q457 1043 501 1043 Q544 1043 573.5 1014.5 Q603 986 603 944 Z M471 281 L471 0 L255 0 L255 281 L-10 763 L233 763 L329 555 Q337 537 343.5 519 Q350 501 360 466 L366 466 Q374 495 381 515 Q388 535 397 555 L490 763 L734 763 L471 281 Z " />
<glyph glyph-name="Ygrave" unicode="&#x1ef2;" horiz-adv-x="724" d="M370 799 L73 938 L176 1090 L437 920 L370 799 Z M471 281 L471 0 L255 0 L255 281 L-10 763 L233 763 L329 555 Q337 537 343.5 519 Q350 501 360 466 L366 466 Q374 495 381 515 Q388 535 397 555 L490 763 L734 763 L471 281 Z " />
<glyph glyph-name="Z" unicode="Z" horiz-adv-x="654" d="M604 174 L604 0 L50 0 L50 159 L344 586 L342 589 L60 589 L60 763 L594 763 L594 594 L299 177 L301 174 L604 174 Z " />
<glyph glyph-name="Zacute" unicode="&#x179;" horiz-adv-x="654" d="M615 938 L318 799 L251 920 L512 1090 L615 938 Z M604 174 L604 0 L50 0 L50 159 L344 586 L342 589 L60 589 L60 763 L594 763 L594 594 L299 177 L301 174 L604 174 Z " />
<glyph glyph-name="Zdotaccent" unicode="&#x17b;" horiz-adv-x="654" d="M447 942 Q447 892 412.5 858.5 Q378 825 328 825 Q276 825 241.5 858.5 Q207 892 207 942 Q207 992 241.5 1025 Q276 1058 328 1058 Q379 1058 413 1025 Q447 992 447 942 Z M604 174 L604 0 L50 0 L50 159 L344 586 L342 589 L60 589 L60 763 L594 763 L594 594 L299 177 L301 174 L604 174 Z " />
<glyph glyph-name="Zcaron" unicode="&#x17d;" horiz-adv-x="654" d="M327 961 L483 1066 L563 976 L396 814 L261 814 L92 976 L174 1066 L327 961 Z M604 174 L604 0 L50 0 L50 159 L344 586 L342 589 L60 589 L60 763 L594 763 L594 594 L299 177 L301 174 L604 174 Z " />
<glyph glyph-name="Schwa" unicode="&#x18f;" horiz-adv-x="797" d="M92 729 Q152 751 213.5 762 Q275 773 339 773 Q523 773 630 667.5 Q737 562 737 375 Q737 198 638 91.5 Q539 -15 370 -15 Q222 -15 141 68 Q60 151 60 299 Q60 334 65 372.5 Q70 411 79 445 L518 445 Q505 522 457.5 557 Q410 592 321 592 Q271 592 218 582 Q165 572 92 546 L92 729 Z M254 263 Q253 205 286.5 171.5 Q320 138 378 138 Q444 138 481 180 Q518 222 521 302 L257 302 Q255 298 254.5 290 Q254 282 254 263 Z " />
<glyph glyph-name="a" unicode="a" horiz-adv-x="611" d="M362 53 Q326 17 292.5 3 Q259 -11 215 -11 Q138 -11 94 35.5 Q50 82 50 160 Q50 246 113.5 288 Q177 330 307 330 L342 330 Q343 333 343 336.5 Q343 340 343 352 Q343 379 320.5 391.5 Q298 404 251 404 Q212 404 178 397.5 Q144 391 98 374 L98 531 Q139 543 185 549 Q231 555 282 555 Q422 555 481.5 495 Q541 435 541 299 L541 0 L386 0 L366 52 L362 53 Z M320 228 Q279 228 260.5 215 Q242 202 242 170 Q242 146 254 133 Q266 120 287 120 Q309 120 330.5 130.5 Q352 141 360 155 L360 228 L320 228 Z " />
<glyph glyph-name="agrave" unicode="&#xe0;" horiz-adv-x="611" d="M234 924 L406 707 L312 615 L88 803 L234 924 Z M362 53 Q326 17 292.5 3 Q259 -11 215 -11 Q138 -11 94 35.5 Q50 82 50 160 Q50 246 113.5 288 Q177 330 307 330 L342 330 Q343 333 343 336.5 Q343 340 343 352 Q343 379 320.5 391.5 Q298 404 251 404 Q212 404 178 397.5 Q144 391 98 374 L98 531 Q139 543 185 549 Q231 555 282 555 Q422 555 481.5 495 Q541 435 541 299 L541 0 L386 0 L366 52 L362 53 Z M320 228 Q279 228 260.5 215 Q242 202 242 170 Q242 146 254 133 Q266 120 287 120 Q309 120 330.5 130.5 Q352 141 360 155 L360 228 L320 228 Z " />
<glyph glyph-name="aacute" unicode="&#xe1;" horiz-adv-x="611" d="M535 803 L311 615 L217 707 L389 924 L535 803 Z M362 53 Q326 17 292.5 3 Q259 -11 215 -11 Q138 -11 94 35.5 Q50 82 50 160 Q50 246 113.5 288 Q177 330 307 330 L342 330 Q343 333 343 336.5 Q343 340 343 352 Q343 379 320.5 391.5 Q298 404 251 404 Q212 404 178 397.5 Q144 391 98 374 L98 531 Q139 543 185 549 Q231 555 282 555 Q422 555 481.5 495 Q541 435 541 299 L541 0 L386 0 L366 52 L362 53 Z M320 228 Q279 228 260.5 215 Q242 202 242 170 Q242 146 254 133 Q266 120 287 120 Q309 120 330.5 130.5 Q352 141 360 155 L360 228 L320 228 Z " />
<glyph glyph-name="acircumflex" unicode="&#xe2;" horiz-adv-x="611" d="M288 733 L164 608 L72 698 L219 890 L354 890 L503 698 L409 608 L288 733 Z M362 53 Q326 17 292.5 3 Q259 -11 215 -11 Q138 -11 94 35.5 Q50 82 50 160 Q50 246 113.5 288 Q177 330 307 330 L342 330 Q343 333 343 336.5 Q343 340 343 352 Q343 379 320.5 391.5 Q298 404 251 404 Q212 404 178 397.5 Q144 391 98 374 L98 531 Q139 543 185 549 Q231 555 282 555 Q422 555 481.5 495 Q541 435 541 299 L541 0 L386 0 L366 52 L362 53 Z M320 228 Q279 228 260.5 215 Q242 202 242 170 Q242 146 254 133 Q266 120 287 120 Q309 120 330.5 130.5 Q352 141 360 155 L360 228 L320 228 Z " />
<glyph glyph-name="atilde" unicode="&#xe3;" horiz-adv-x="611" d="M531 879 Q532 763 493 700.5 Q454 638 385 643 Q361 645 340 655 Q319 665 289 692 Q272 708 264 713 Q256 718 249 718 Q235 719 227.5 700.5 Q220 682 220 645 L93 645 Q92 760 131.5 822 Q171 884 239 879 Q264 877 286 867 Q308 857 338 829 Q353 814 360.5 809.5 Q368 805 375 805 Q389 804 396.5 823 Q404 842 404 879 L531 879 Z M362 53 Q326 17 292.5 3 Q259 -11 215 -11 Q138 -11 94 35.5 Q50 82 50 160 Q50 246 113.5 288 Q177 330 307 330 L342 330 Q343 333 343 336.5 Q343 340 343 352 Q343 379 320.5 391.5 Q298 404 251 404 Q212 404 178 397.5 Q144 391 98 374 L98 531 Q139 543 185 549 Q231 555 282 555 Q422 555 481.5 495 Q541 435 541 299 L541 0 L386 0 L366 52 L362 53 Z M320 228 Q279 228 260.5 215 Q242 202 242 170 Q242 146 254 133 Q266 120 287 120 Q309 120 330.5 130.5 Q352 141 360 155 L360 228 L320 228 Z " />
<glyph glyph-name="adieresis" unicode="&#xe4;" horiz-adv-x="611" d="M172 874 Q215 874 244 845.5 Q273 817 273 774 Q273 732 244 703.5 Q215 675 172 675 Q128 675 99 703.5 Q70 732 70 774 Q70 817 99 845.5 Q128 874 172 874 Z M422 873 Q465 873 494.5 844.5 Q524 816 524 774 Q524 732 494.5 703.5 Q465 675 422 675 Q378 675 349 703.5 Q320 732 320 774 Q320 816 349 844.5 Q378 873 422 873 Z M362 53 Q326 17 292.5 3 Q259 -11 215 -11 Q138 -11 94 35.5 Q50 82 50 160 Q50 246 113.5 288 Q177 330 307 330 L342 330 Q343 333 343 336.5 Q343 340 343 352 Q343 379 320.5 391.5 Q298 404 251 404 Q212 404 178 397.5 Q144 391 98 374 L98 531 Q139 543 185 549 Q231 555 282 555 Q422 555 481.5 495 Q541 435 541 299 L541 0 L386 0 L366 52 L362 53 Z M320 228 Q279 228 260.5 215 Q242 202 242 170 Q242 146 254 133 Q266 120 287 120 Q309 120 330.5 130.5 Q352 141 360 155 L360 228 L320 228 Z " />
<glyph glyph-name="aring" unicode="&#xe5;" horiz-adv-x="611" d="M297 928 Q362 928 406.5 883.5 Q451 839 451 774 Q451 710 406.5 665 Q362 620 297 620 Q233 620 188 665 Q143 710 143 774 Q143 839 188 883.5 Q233 928 297 928 Z M297 823 Q275 823 261.5 810 Q248 797 248 774 Q248 752 261.5 738.5 Q275 725 297 725 Q319 725 332.5 738.5 Q346 752 346 774 Q346 796 332.5 809.5 Q319 823 297 823 Z M362 53 Q326 17 292.5 3 Q259 -11 215 -11 Q138 -11 94 35.5 Q50 82 50 160 Q50 246 113.5 288 Q177 330 307 330 L342 330 Q343 333 343 336.5 Q343 340 343 352 Q343 379 320.5 391.5 Q298 404 251 404 Q212 404 178 397.5 Q144 391 98 374 L98 531 Q139 543 185 549 Q231 555 282 555 Q422 555 481.5 495 Q541 435 541 299 L541 0 L386 0 L366 52 L362 53 Z M320 228 Q279 228 260.5 215 Q242 202 242 170 Q242 146 254 133 Q266 120 287 120 Q309 120 330.5 130.5 Q352 141 360 155 L360 228 L320 228 Z " />
<glyph glyph-name="amacron" unicode="&#x101;" horiz-adv-x="611" d="M508 840 L508 708 L106 708 L106 840 L508 840 Z M362 53 Q326 17 292.5 3 Q259 -11 215 -11 Q138 -11 94 35.5 Q50 82 50 160 Q50 246 113.5 288 Q177 330 307 330 L342 330 Q343 333 343 336.5 Q343 340 343 352 Q343 379 320.5 391.5 Q298 404 251 404 Q212 404 178 397.5 Q144 391 98 374 L98 531 Q139 543 185 549 Q231 555 282 555 Q422 555 481.5 495 Q541 435 541 299 L541 0 L386 0 L366 52 L362 53 Z M320 228 Q279 228 260.5 215 Q242 202 242 170 Q242 146 254 133 Q266 120 287 120 Q309 120 330.5 130.5 Q352 141 360 155 L360 228 L320 228 Z " />
<glyph glyph-name="abreve" unicode="&#x103;" horiz-adv-x="566" d="M506 859 Q506 754 451.5 689.5 Q397 625 303 625 Q209 625 154.5 689.5 Q100 754 100 859 L226 859 Q228 815 248 789 Q268 763 303 763 Q338 763 358 789 Q378 815 380 859 L506 859 Z M362 53 Q326 17 292.5 3 Q259 -11 215 -11 Q138 -11 94 35.5 Q50 82 50 160 Q50 246 113.5 288 Q177 330 307 330 L342 330 Q343 333 343 336.5 Q343 340 343 352 Q343 379 320.5 391.5 Q298 404 251 404 Q212 404 178 397.5 Q144 391 98 374 L98 531 Q139 543 185 549 Q231 555 282 555 Q422 555 481.5 495 Q541 435 541 299 L541 0 L386 0 L366 52 L362 53 Z M320 228 Q279 228 260.5 215 Q242 202 242 170 Q242 146 254 133 Q266 120 287 120 Q309 120 330.5 130.5 Q352 141 360 155 L360 228 L320 228 Z " />
<glyph glyph-name="aogonek" unicode="&#x105;" horiz-adv-x="566" d="M541 -215 Q514 -225 481.5 -230.5 Q449 -236 415 -236 Q349 -236 305.5 -200 Q262 -164 262 -107 Q262 -73 276.5 -46 Q291 -19 320 0 Q332 8 346 15 Q360 22 375 28 L366 52 L362 53 Q326 17 292.5 3 Q259 -11 215 -11 Q138 -11 94 35.5 Q50 82 50 160 Q50 246 113.5 288 Q177 330 307 330 L342 330 Q343 333 343 336.5 Q343 340 343 352 Q343 379 320.5 391.5 Q298 404 251 404 Q212 404 178 397.5 Q144 391 98 374 L98 531 Q139 543 185 549 Q231 555 282 555 Q422 555 481.5 495 Q541 435 541 299 L541 0 Q494 -9 464 -32 Q434 -55 434 -79 Q434 -93 444 -100.5 Q454 -108 474 -108 Q490 -108 506.5 -104 Q523 -100 541 -91 L541 -215 Z M320 228 Q279 228 260.5 215 Q242 202 242 170 Q242 146 254 133 Q266 120 287 120 Q309 120 330.5 130.5 Q352 141 360 155 L360 228 L320 228 Z " />
<glyph glyph-name="aringacute" unicode="&#x1fb;" horiz-adv-x="566" d="M508 1047 L211 908 L144 1029 L405 1199 L508 1047 Z M302 894 Q367 894 411.5 849.5 Q456 805 456 740 Q456 676 411.5 631 Q367 586 302 586 Q238 586 193 631 Q148 676 148 740 Q148 805 193 849.5 Q238 894 302 894 Z M302 789 Q280 789 266.5 776 Q253 763 253 740 Q253 718 266.5 704.5 Q280 691 302 691 Q324 691 337.5 704.5 Q351 718 351 740 Q351 762 337.5 775.5 Q324 789 302 789 Z M362 53 Q326 17 292.5 3 Q259 -11 215 -11 Q138 -11 94 35.5 Q50 82 50 160 Q50 246 113.5 288 Q177 330 307 330 L342 330 Q343 333 343 336.5 Q343 340 343 352 Q343 379 320.5 391.5 Q298 404 251 404 Q212 404 178 397.5 Q144 391 98 374 L98 531 Q139 543 185 549 Q231 555 282 555 Q422 555 481.5 495 Q541 435 541 299 L541 0 L386 0 L366 52 L362 53 Z M320 228 Q279 228 260.5 215 Q242 202 242 170 Q242 146 254 133 Q266 120 287 120 Q309 120 330.5 130.5 Q352 141 360 155 L360 228 L320 228 Z " />
<glyph glyph-name="ae" unicode="&#xe6;" horiz-adv-x="910" d="M837 21 Q792 5 745.5 -3 Q699 -11 649 -11 Q578 -11 521.5 11 Q465 33 427 74 Q394 35 341.5 12 Q289 -11 231 -11 Q147 -11 98.5 35.5 Q50 82 50 160 Q50 246 113.5 288 Q177 330 307 330 L342 330 Q343 333 343 336.5 Q343 340 343 347 Q343 374 320.5 386.5 Q298 399 251 399 Q212 399 178 392.5 Q144 386 98 369 L98 531 Q139 543 185 549 Q231 555 282 555 Q343 555 388 544 Q433 533 464 511 Q496 533 537.5 544.5 Q579 556 627 556 Q738 556 799 496.5 Q860 437 860 330 Q860 302 856 274 Q852 246 845 223 L544 223 Q553 179 582.5 159.5 Q612 140 670 140 Q704 140 739 146 Q774 152 837 172 L837 21 Z M687 361 Q687 392 669.5 409 Q652 426 620 426 Q583 426 563 406 Q543 386 540 347 L685 347 Q686 349 686.5 353 Q687 357 687 361 Z M242 168 Q242 149 254 138.5 Q266 128 287 128 Q312 128 335.5 139.5 Q359 151 371 170 Q368 181 365 192 Q362 203 360 215 L360 216 L320 216 Q279 216 260.5 205.5 Q242 195 242 168 Z " />
<glyph glyph-name="aeacute" unicode="&#x1fd;" horiz-adv-x="900" d="M693 803 L469 615 L375 707 L547 924 L693 803 Z M837 21 Q792 5 745.5 -3 Q699 -11 649 -11 Q578 -11 521.5 11 Q465 33 427 74 Q394 35 341.5 12 Q289 -11 231 -11 Q147 -11 98.5 35.5 Q50 82 50 160 Q50 246 113.5 288 Q177 330 307 330 L342 330 Q343 333 343 336.5 Q343 340 343 347 Q343 374 320.5 386.5 Q298 399 251 399 Q212 399 178 392.5 Q144 386 98 369 L98 531 Q139 543 185 549 Q231 555 282 555 Q343 555 388 544 Q433 533 464 511 Q496 533 537.5 544.5 Q579 556 627 556 Q738 556 799 496.5 Q860 437 860 330 Q860 302 856 274 Q852 246 845 223 L544 223 Q553 179 582.5 159.5 Q612 140 670 140 Q704 140 739 146 Q774 152 837 172 L837 21 Z M687 361 Q687 392 669.5 409 Q652 426 620 426 Q583 426 563 406 Q543 386 540 347 L685 347 Q686 349 686.5 353 Q687 357 687 361 Z M242 168 Q242 149 254 138.5 Q266 128 287 128 Q312 128 335.5 139.5 Q359 151 371 170 Q368 181 365 192 Q362 203 360 215 L360 216 L320 216 Q279 216 260.5 205.5 Q242 195 242 168 Z " />
<glyph glyph-name="b" unicode="b" horiz-adv-x="665" d="M625 293 Q625 156 545 73 Q465 -10 331 -10 Q279 -10 220.5 4 Q162 18 80 49 L80 791 L280 791 L280 501 L282 499 Q310 528 345.5 542 Q381 556 427 556 Q515 556 570 484 Q625 412 625 293 Z M280 159 Q293 153 306 150 Q319 147 332 147 Q377 147 401 180.5 Q425 214 425 276 Q425 335 402 366.5 Q379 398 336 398 Q318 398 303.5 391.5 Q289 385 280 373 L280 159 Z " />
<glyph glyph-name="c" unicode="c" horiz-adv-x="510" d="M470 28 Q433 9 393 -0.5 Q353 -10 311 -10 Q188 -10 114 68 Q40 146 40 272 Q40 403 111.5 479 Q183 555 311 555 Q359 555 397 545.5 Q435 536 467 517 L467 354 Q440 374 404 385.5 Q368 397 332 397 Q286 397 262.5 366 Q239 335 239 275 Q239 216 263 184.5 Q287 153 332 153 Q370 153 406 164.5 Q442 176 470 196 L470 28 Z " />
<glyph glyph-name="ccedilla" unicode="&#xe7;" horiz-adv-x="510" d="M422 -107 Q422 -164 378.5 -200 Q335 -236 269 -236 Q235 -236 202.5 -230.5 Q170 -225 143 -215 L143 -91 Q163 -100 177.5 -104 Q192 -108 206 -108 Q227 -108 238.5 -96 Q250 -84 250 -63 Q250 -46 242 -30 Q234 -14 213 5 Q132 32 86 102.5 Q40 173 40 272 Q40 403 111.5 479 Q183 555 311 555 Q359 555 397 545.5 Q435 536 467 517 L467 354 Q440 374 404 385.5 Q368 397 332 397 Q286 397 262.5 366 Q239 335 239 275 Q239 216 263 184.5 Q287 153 332 153 Q370 153 406 164.5 Q442 176 470 196 L470 28 Q448 17 424.5 8.5 Q401 0 376 -4 Q381 -9 384.5 -13 Q388 -17 392 -21 Q407 -40 414.5 -61 Q422 -82 422 -107 Z " />
<glyph glyph-name="cacute" unicode="&#x107;" horiz-adv-x="510" d="M508 803 L284 615 L190 707 L362 924 L508 803 Z M470 28 Q433 9 393 -0.5 Q353 -10 311 -10 Q188 -10 114 68 Q40 146 40 272 Q40 403 111.5 479 Q183 555 311 555 Q359 555 397 545.5 Q435 536 467 517 L467 354 Q440 374 404 385.5 Q368 397 332 397 Q286 397 262.5 366 Q239 335 239 275 Q239 216 263 184.5 Q287 153 332 153 Q370 153 406 164.5 Q442 176 470 196 L470 28 Z " />
<glyph glyph-name="ccircumflex" unicode="&#x109;" horiz-adv-x="510" d="M303 733 L179 608 L87 698 L234 890 L369 890 L518 698 L424 608 L303 733 Z M470 28 Q433 9 393 -0.5 Q353 -10 311 -10 Q188 -10 114 68 Q40 146 40 272 Q40 403 111.5 479 Q183 555 311 555 Q359 555 397 545.5 Q435 536 467 517 L467 354 Q440 374 404 385.5 Q368 397 332 397 Q286 397 262.5 366 Q239 335 239 275 Q239 216 263 184.5 Q287 153 332 153 Q370 153 406 164.5 Q442 176 470 196 L470 28 Z " />
<glyph glyph-name="cdotaccent" unicode="&#x10b;" horiz-adv-x="510" d="M419 744 Q419 694 384.5 660.5 Q350 627 300 627 Q248 627 213.5 660.5 Q179 694 179 744 Q179 794 213.5 827 Q248 860 300 860 Q351 860 385 827 Q419 794 419 744 Z M470 28 Q433 9 393 -0.5 Q353 -10 311 -10 Q188 -10 114 68 Q40 146 40 272 Q40 403 111.5 479 Q183 555 311 555 Q359 555 397 545.5 Q435 536 467 517 L467 354 Q440 374 404 385.5 Q368 397 332 397 Q286 397 262.5 366 Q239 335 239 275 Q239 216 263 184.5 Q287 153 332 153 Q370 153 406 164.5 Q442 176 470 196 L470 28 Z " />
<glyph glyph-name="ccaron" unicode="&#x10d;" horiz-adv-x="510" d="M284 771 L408 896 L500 806 L353 614 L218 614 L69 806 L163 896 L284 771 Z M470 28 Q433 9 393 -0.5 Q353 -10 311 -10 Q188 -10 114 68 Q40 146 40 272 Q40 403 111.5 479 Q183 555 311 555 Q359 555 397 545.5 Q435 536 467 517 L467 354 Q440 374 404 385.5 Q368 397 332 397 Q286 397 262.5 366 Q239 335 239 275 Q239 216 263 184.5 Q287 153 332 153 Q370 153 406 164.5 Q442 176 470 196 L470 28 Z " />
<glyph glyph-name="d" unicode="d" horiz-adv-x="666" d="M383 43 Q361 17 326 3 Q291 -11 247 -11 Q154 -11 97 65.5 Q40 142 40 269 Q40 395 100.5 475.5 Q161 556 261 556 Q291 556 322.5 548.5 Q354 541 381 527 L386 530 L386 791 L586 791 L586 0 L386 0 L386 41 L383 43 Z M386 388 Q376 395 361.5 398.5 Q347 402 332 402 Q288 402 264 367.5 Q240 333 240 271 Q240 211 263 176 Q286 141 328 141 Q347 141 362 148.5 Q377 156 386 170 L386 388 Z " />
<glyph glyph-name="dcaron" unicode="&#x10f;" horiz-adv-x="666" d="M846 893 L732 624 L606 663 L661 935 L846 893 Z M383 43 Q361 17 326 3 Q291 -11 247 -11 Q154 -11 97 65.5 Q40 142 40 269 Q40 395 100.5 475.5 Q161 556 261 556 Q291 556 322.5 548.5 Q354 541 381 527 L386 530 L386 791 L586 791 L586 0 L386 0 L386 41 L383 43 Z M386 388 Q376 395 361.5 398.5 Q347 402 332 402 Q288 402 264 367.5 Q240 333 240 271 Q240 211 263 176 Q286 141 328 141 Q347 141 362 148.5 Q377 156 386 170 L386 388 Z " />
<glyph glyph-name="dslash" unicode="&#x111;" horiz-adv-x="666" d="M383 43 Q361 17 326 3 Q291 -11 247 -11 Q154 -11 97 65.5 Q40 142 40 269 Q40 395 100.5 475.5 Q161 556 261 556 Q291 556 322.5 548.5 Q354 541 381 527 L386 530 L386 614 L223 614 L223 710 L386 710 L386 791 L586 791 L586 710 L636 710 L636 614 L586 614 L586 0 L386 0 L386 41 L383 43 Z M386 388 Q376 395 361.5 398.5 Q347 402 332 402 Q288 402 264 367.5 Q240 333 240 271 Q240 211 263 176 Q286 141 328 141 Q347 141 362 148.5 Q377 156 386 170 L386 388 Z " />
<glyph glyph-name="eth" unicode="&#xf0;" horiz-adv-x="640" d="M600 309 Q600 157 525 73 Q450 -11 311 -11 Q183 -11 111.5 60 Q40 131 40 252 Q40 365 102.5 435 Q165 505 269 505 Q295 505 317.5 502.5 Q340 500 360 495 Q344 521 322.5 545.5 Q301 570 276 592 L191 518 L110 606 L180 660 Q158 673 133 685.5 Q108 698 82 709 L210 822 Q237 809 262.5 795.5 Q288 782 312 767 L393 837 L485 743 L411 693 Q502 613 551 514.5 Q600 416 600 309 Z M240 253 Q240 196 259.5 169 Q279 142 320 142 Q359 142 378.5 169 Q398 196 398 252 Q398 309 378.5 336.5 Q359 364 320 364 Q279 364 259.5 337 Q240 310 240 253 Z " />
<glyph glyph-name="e" unicode="e" horiz-adv-x="585" d="M522 21 Q477 5 430.5 -3 Q384 -11 334 -11 Q199 -11 119.5 67 Q40 145 40 280 Q40 405 113.5 480.5 Q187 556 312 556 Q423 556 484 496.5 Q545 437 545 330 Q545 302 541 274 Q537 246 530 223 L229 223 Q238 179 267.5 159.5 Q297 140 355 140 Q389 140 424 146 Q459 152 522 172 L522 21 Z M382 359 Q382 394 362.5 413.5 Q343 433 308 433 Q269 433 247.5 408 Q226 383 225 335 L380 335 Q381 337 381.5 341.5 Q382 346 382 359 Z " />
<glyph glyph-name="egrave" unicode="&#xe8;" horiz-adv-x="585" d="M214 924 L386 707 L292 615 L68 803 L214 924 Z M522 21 Q477 5 430.5 -3 Q384 -11 334 -11 Q199 -11 119.5 67 Q40 145 40 280 Q40 405 113.5 480.5 Q187 556 312 556 Q423 556 484 496.5 Q545 437 545 330 Q545 302 541 274 Q537 246 530 223 L229 223 Q238 179 267.5 159.5 Q297 140 355 140 Q389 140 424 146 Q459 152 522 172 L522 21 Z M382 359 Q382 394 362.5 413.5 Q343 433 308 433 Q269 433 247.5 408 Q226 383 225 335 L380 335 Q381 337 381.5 341.5 Q382 346 382 359 Z " />
<glyph glyph-name="eacute" unicode="&#xe9;" horiz-adv-x="585" d="M518 803 L294 615 L200 707 L372 924 L518 803 Z M522 21 Q477 5 430.5 -3 Q384 -11 334 -11 Q199 -11 119.5 67 Q40 145 40 280 Q40 405 113.5 480.5 Q187 556 312 556 Q423 556 484 496.5 Q545 437 545 330 Q545 302 541 274 Q537 246 530 223 L229 223 Q238 179 267.5 159.5 Q297 140 355 140 Q389 140 424 146 Q459 152 522 172 L522 21 Z M382 359 Q382 394 362.5 413.5 Q343 433 308 433 Q269 433 247.5 408 Q226 383 225 335 L380 335 Q381 337 381.5 341.5 Q382 346 382 359 Z " />
<glyph glyph-name="ecircumflex" unicode="&#xea;" horiz-adv-x="585" d="M293 733 L169 608 L77 698 L224 890 L359 890 L508 698 L414 608 L293 733 Z M522 21 Q477 5 430.5 -3 Q384 -11 334 -11 Q199 -11 119.5 67 Q40 145 40 280 Q40 405 113.5 480.5 Q187 556 312 556 Q423 556 484 496.5 Q545 437 545 330 Q545 302 541 274 Q537 246 530 223 L229 223 Q238 179 267.5 159.5 Q297 140 355 140 Q389 140 424 146 Q459 152 522 172 L522 21 Z M382 359 Q382 394 362.5 413.5 Q343 433 308 433 Q269 433 247.5 408 Q226 383 225 335 L380 335 Q381 337 381.5 341.5 Q382 346 382 359 Z " />
<glyph glyph-name="edieresis" unicode="&#xeb;" horiz-adv-x="585" d="M167 874 Q210 874 239 845.5 Q268 817 268 774 Q268 732 239 703.5 Q210 675 167 675 Q123 675 94 703.5 Q65 732 65 774 Q65 817 94 845.5 Q123 874 167 874 Z M417 873 Q460 873 489.5 844.5 Q519 816 519 774 Q519 732 489.5 703.5 Q460 675 417 675 Q373 675 344 703.5 Q315 732 315 774 Q315 816 344 844.5 Q373 873 417 873 Z M522 21 Q477 5 430.5 -3 Q384 -11 334 -11 Q199 -11 119.5 67 Q40 145 40 280 Q40 405 113.5 480.5 Q187 556 312 556 Q423 556 484 496.5 Q545 437 545 330 Q545 302 541 274 Q537 246 530 223 L229 223 Q238 179 267.5 159.5 Q297 140 355 140 Q389 140 424 146 Q459 152 522 172 L522 21 Z M382 359 Q382 394 362.5 413.5 Q343 433 308 433 Q269 433 247.5 408 Q226 383 225 335 L380 335 Q381 337 381.5 341.5 Q382 346 382 359 Z " />
<glyph glyph-name="emacron" unicode="&#x113;" horiz-adv-x="585" d="M505 840 L505 708 L103 708 L103 840 L505 840 Z M522 21 Q477 5 430.5 -3 Q384 -11 334 -11 Q199 -11 119.5 67 Q40 145 40 280 Q40 405 113.5 480.5 Q187 556 312 556 Q423 556 484 496.5 Q545 437 545 330 Q545 302 541 274 Q537 246 530 223 L229 223 Q238 179 267.5 159.5 Q297 140 355 140 Q389 140 424 146 Q459 152 522 172 L522 21 Z M382 359 Q382 394 362.5 413.5 Q343 433 308 433 Q269 433 247.5 408 Q226 383 225 335 L380 335 Q381 337 381.5 341.5 Q382 346 382 359 Z " />
<glyph glyph-name="ebreve" unicode="&#x115;" horiz-adv-x="585" d="M512 859 Q512 754 457.5 689.5 Q403 625 309 625 Q215 625 160.5 689.5 Q106 754 106 859 L232 859 Q234 815 254 789 Q274 763 309 763 Q344 763 364 789 Q384 815 386 859 L512 859 Z M522 21 Q477 5 430.5 -3 Q384 -11 334 -11 Q199 -11 119.5 67 Q40 145 40 280 Q40 405 113.5 480.5 Q187 556 312 556 Q423 556 484 496.5 Q545 437 545 330 Q545 302 541 274 Q537 246 530 223 L229 223 Q238 179 267.5 159.5 Q297 140 355 140 Q389 140 424 146 Q459 152 522 172 L522 21 Z M382 359 Q382 394 362.5 413.5 Q343 433 308 433 Q269 433 247.5 408 Q226 383 225 335 L380 335 Q381 337 381.5 341.5 Q382 346 382 359 Z " />
<glyph glyph-name="edotaccent" unicode="&#x117;" horiz-adv-x="585" d="M432 744 Q432 694 397.5 660.5 Q363 627 313 627 Q261 627 226.5 660.5 Q192 694 192 744 Q192 794 226.5 827 Q261 860 313 860 Q364 860 398 827 Q432 794 432 744 Z M522 21 Q477 5 430.5 -3 Q384 -11 334 -11 Q199 -11 119.5 67 Q40 145 40 280 Q40 405 113.5 480.5 Q187 556 312 556 Q423 556 484 496.5 Q545 437 545 330 Q545 302 541 274 Q537 246 530 223 L229 223 Q238 179 267.5 159.5 Q297 140 355 140 Q389 140 424 146 Q459 152 522 172 L522 21 Z M382 359 Q382 394 362.5 413.5 Q343 433 308 433 Q269 433 247.5 408 Q226 383 225 335 L380 335 Q381 337 381.5 341.5 Q382 346 382 359 Z " />
<glyph glyph-name="eogonek" unicode="&#x119;" horiz-adv-x="585" d="M447 -215 Q420 -225 387.5 -230.5 Q355 -236 321 -236 Q255 -236 211.5 -200 Q168 -164 168 -107 Q168 -73 182.5 -46 Q197 -19 226 0 Q227 1 228 1.5 Q229 2 231 3 Q141 29 90.5 101 Q40 173 40 280 Q40 405 113.5 480.5 Q187 556 312 556 Q423 556 484 496.5 Q545 437 545 330 Q545 302 541 274 Q537 246 530 223 L229 223 Q238 179 267.5 159.5 Q297 140 355 140 Q389 140 424 146 Q459 152 522 172 L522 21 Q503 14 484.5 9 Q466 4 447 0 L447 0 Q400 -9 370 -32 Q340 -55 340 -79 Q340 -93 350 -100.5 Q360 -108 380 -108 Q396 -108 412.5 -104 Q429 -100 447 -91 L447 -215 Z M382 359 Q382 394 362.5 413.5 Q343 433 308 433 Q269 433 247.5 408 Q226 383 225 335 L380 335 Q381 337 381.5 341.5 Q382 346 382 359 Z " />
<glyph glyph-name="ecaron" unicode="&#x11b;" horiz-adv-x="585" d="M304 771 L428 896 L520 806 L373 614 L238 614 L89 806 L183 896 L304 771 Z M522 21 Q477 5 430.5 -3 Q384 -11 334 -11 Q199 -11 119.5 67 Q40 145 40 280 Q40 405 113.5 480.5 Q187 556 312 556 Q423 556 484 496.5 Q545 437 545 330 Q545 302 541 274 Q537 246 530 223 L229 223 Q238 179 267.5 159.5 Q297 140 355 140 Q389 140 424 146 Q459 152 522 172 L522 21 Z M382 359 Q382 394 362.5 413.5 Q343 433 308 433 Q269 433 247.5 408 Q226 383 225 335 L380 335 Q381 337 381.5 341.5 Q382 346 382 359 Z " />
<glyph glyph-name="f" unicode="f" horiz-adv-x="479" d="M312 395 L312 0 L112 0 L112 395 L30 395 L30 545 L113 545 Q121 673 184 737 Q247 801 367 801 Q400 801 436 796 Q472 791 509 781 L509 619 Q477 629 450 633 Q423 637 393 637 Q350 637 331 616 Q312 595 313 545 L456 545 L456 395 L312 395 Z " />
<glyph glyph-name="fi" unicode="&#xfb01;" horiz-adv-x="839" d="M779 744 Q779 694 744.5 660.5 Q710 627 660 627 Q608 627 573.5 660.5 Q539 694 539 744 Q539 794 573.5 827 Q608 860 660 860 Q711 860 745 827 Q779 794 779 744 Z M312 395 L312 0 L112 0 L112 395 L30 395 L30 545 L113 545 Q121 673 184 737 Q247 801 367 801 Q400 801 436 796 Q472 791 509 781 L509 619 Q477 629 450 633 Q423 637 393 637 Q350 637 331 616 Q312 595 313 545 L456 545 L456 395 L312 395 Z M759 545 L759 0 L559 0 L559 545 L759 545 Z " />
<glyph glyph-name="fl" unicode="&#xfb02;" horiz-adv-x="839" d="M312 395 L312 0 L112 0 L112 395 L30 395 L30 545 L113 545 Q121 673 184 737 Q247 801 367 801 Q400 801 436 796 Q472 791 509 781 L509 619 Q477 629 450 633 Q423 637 393 637 Q350 637 331 616 Q312 595 313 545 L456 545 L456 395 L312 395 Z M759 791 L759 0 L559 0 L559 791 L759 791 Z " />
<glyph glyph-name="f_f" unicode="&#xfb00;" horiz-adv-x="958" d="M312 395 L312 0 L112 0 L112 395 L30 395 L30 545 L113 545 Q121 673 184 737 Q247 801 367 801 Q400 801 436 796 Q472 791 509 781 L509 619 Q477 629 450 633 Q423 637 393 637 Q350 637 331 616 Q312 595 313 545 L456 545 L456 395 L312 395 Z M791 395 L791 0 L591 0 L591 395 L509 395 L509 545 L592 545 Q600 673 663 737 Q726 801 846 801 Q879 801 915 796 Q951 791 988 781 L988 619 Q956 629 929 633 Q902 637 872 637 Q829 637 810 616 Q791 595 792 545 L935 545 L935 395 L791 395 Z " />
<glyph glyph-name="f_f_i" unicode="&#xfb03;" horiz-adv-x="1318" d="M1258 744 Q1258 694 1223.5 660.5 Q1189 627 1139 627 Q1087 627 1052.5 660.5 Q1018 694 1018 744 Q1018 794 1052.5 827 Q1087 860 1139 860 Q1190 860 1224 827 Q1258 794 1258 744 Z M312 395 L312 0 L112 0 L112 395 L30 395 L30 545 L113 545 Q121 673 184 737 Q247 801 367 801 Q400 801 436 796 Q472 791 509 781 L509 619 Q477 629 450 633 Q423 637 393 637 Q350 637 331 616 Q312 595 313 545 L456 545 L456 395 L312 395 Z M791 395 L791 0 L591 0 L591 395 L509 395 L509 545 L592 545 Q600 673 663 737 Q726 801 846 801 Q879 801 915 796 Q951 791 988 781 L988 619 Q956 629 929 633 Q902 637 872 637 Q829 637 810 616 Q791 595 792 545 L935 545 L935 395 L791 395 Z M1238 545 L1238 0 L1038 0 L1038 545 L1238 545 Z " />
<glyph glyph-name="f_f_l" unicode="&#xfb04;" horiz-adv-x="1318" d="M312 395 L312 0 L112 0 L112 395 L30 395 L30 545 L113 545 Q121 673 184 737 Q247 801 367 801 Q400 801 436 796 Q472 791 509 781 L509 619 Q477 629 450 633 Q423 637 393 637 Q350 637 331 616 Q312 595 313 545 L456 545 L456 395 L312 395 Z M791 395 L791 0 L591 0 L591 395 L509 395 L509 545 L592 545 Q600 673 663 737 Q726 801 846 801 Q879 801 915 796 Q951 791 988 781 L988 619 Q956 629 929 633 Q902 637 872 637 Q829 637 810 616 Q791 595 792 545 L935 545 L935 395 L791 395 Z M1238 791 L1238 0 L1038 0 L1038 791 L1238 791 Z " />
<glyph glyph-name="g" unicode="g" horiz-adv-x="632" d="M50 -88 Q50 -59 63.5 -35 Q77 -11 105 9 Q83 25 72 46.5 Q61 68 61 94 Q61 121 76 153.5 Q91 186 123 226 Q95 252 80 286 Q65 320 65 359 Q65 445 131 500 Q197 555 310 555 Q346 555 379 548 Q412 541 443 527 L594 565 L594 408 L547 408 Q550 397 552 384.5 Q554 372 554 359 Q554 272 488.5 217.5 Q423 163 310 163 Q291 163 275 165 Q259 167 246 170 Q241 164 238.5 156.5 Q236 149 236 142 Q236 130 243 125 Q250 120 265 120 L422 120 Q503 120 552.5 75 Q602 30 602 -41 Q602 -130 523 -182.5 Q444 -235 307 -235 Q185 -235 117.5 -196 Q50 -157 50 -88 Z M375 359 Q375 393 358.5 411 Q342 429 310 429 Q278 429 261 410.5 Q244 392 244 359 Q244 326 261 307.5 Q278 289 310 289 Q342 289 358.5 307 Q375 325 375 359 Z M262 -20 Q250 -20 244.5 -20 Q239 -20 235 -19 Q230 -24 227 -33 Q224 -42 224 -52 Q224 -81 245.5 -94.5 Q267 -108 316 -108 Q370 -108 397 -95.5 Q424 -83 424 -59 Q424 -38 412.5 -29 Q401 -20 373 -20 L262 -20 Z " />
<glyph glyph-name="gcircumflex" unicode="&#x11d;" horiz-adv-x="632" d="M316 733 L192 608 L100 698 L247 890 L382 890 L531 698 L437 608 L316 733 Z M50 -88 Q50 -59 63.5 -35 Q77 -11 105 9 Q83 25 72 46.5 Q61 68 61 94 Q61 121 76 153.5 Q91 186 123 226 Q95 252 80 286 Q65 320 65 359 Q65 445 131 500 Q197 555 310 555 Q346 555 379 548 Q412 541 443 527 L594 565 L594 408 L547 408 Q550 397 552 384.5 Q554 372 554 359 Q554 272 488.5 217.5 Q423 163 310 163 Q291 163 275 165 Q259 167 246 170 Q241 164 238.5 156.5 Q236 149 236 142 Q236 130 243 125 Q250 120 265 120 L422 120 Q503 120 552.5 75 Q602 30 602 -41 Q602 -130 523 -182.5 Q444 -235 307 -235 Q185 -235 117.5 -196 Q50 -157 50 -88 Z M375 359 Q375 393 358.5 411 Q342 429 310 429 Q278 429 261 410.5 Q244 392 244 359 Q244 326 261 307.5 Q278 289 310 289 Q342 289 358.5 307 Q375 325 375 359 Z M262 -20 Q250 -20 244.5 -20 Q239 -20 235 -19 Q230 -24 227 -33 Q224 -42 224 -52 Q224 -81 245.5 -94.5 Q267 -108 316 -108 Q370 -108 397 -95.5 Q424 -83 424 -59 Q424 -38 412.5 -29 Q401 -20 373 -20 L262 -20 Z " />
<glyph glyph-name="gbreve" unicode="&#x11f;" horiz-adv-x="632" d="M514 859 Q514 754 459.5 689.5 Q405 625 311 625 Q217 625 162.5 689.5 Q108 754 108 859 L234 859 Q236 815 256 789 Q276 763 311 763 Q346 763 366 789 Q386 815 388 859 L514 859 Z M50 -88 Q50 -59 63.5 -35 Q77 -11 105 9 Q83 25 72 46.5 Q61 68 61 94 Q61 121 76 153.5 Q91 186 123 226 Q95 252 80 286 Q65 320 65 359 Q65 445 131 500 Q197 555 310 555 Q346 555 379 548 Q412 541 443 527 L594 565 L594 408 L547 408 Q550 397 552 384.5 Q554 372 554 359 Q554 272 488.5 217.5 Q423 163 310 163 Q291 163 275 165 Q259 167 246 170 Q241 164 238.5 156.5 Q236 149 236 142 Q236 130 243 125 Q250 120 265 120 L422 120 Q503 120 552.5 75 Q602 30 602 -41 Q602 -130 523 -182.5 Q444 -235 307 -235 Q185 -235 117.5 -196 Q50 -157 50 -88 Z M375 359 Q375 393 358.5 411 Q342 429 310 429 Q278 429 261 410.5 Q244 392 244 359 Q244 326 261 307.5 Q278 289 310 289 Q342 289 358.5 307 Q375 325 375 359 Z M262 -20 Q250 -20 244.5 -20 Q239 -20 235 -19 Q230 -24 227 -33 Q224 -42 224 -52 Q224 -81 245.5 -94.5 Q267 -108 316 -108 Q370 -108 397 -95.5 Q424 -83 424 -59 Q424 -38 412.5 -29 Q401 -20 373 -20 L262 -20 Z " />
<glyph glyph-name="gdotaccent" unicode="&#x121;" horiz-adv-x="632" d="M433 744 Q433 694 398.5 660.5 Q364 627 314 627 Q262 627 227.5 660.5 Q193 694 193 744 Q193 794 227.5 827 Q262 860 314 860 Q365 860 399 827 Q433 794 433 744 Z M50 -88 Q50 -59 63.5 -35 Q77 -11 105 9 Q83 25 72 46.5 Q61 68 61 94 Q61 121 76 153.5 Q91 186 123 226 Q95 252 80 286 Q65 320 65 359 Q65 445 131 500 Q197 555 310 555 Q346 555 379 548 Q412 541 443 527 L594 565 L594 408 L547 408 Q550 397 552 384.5 Q554 372 554 359 Q554 272 488.5 217.5 Q423 163 310 163 Q291 163 275 165 Q259 167 246 170 Q241 164 238.5 156.5 Q236 149 236 142 Q236 130 243 125 Q250 120 265 120 L422 120 Q503 120 552.5 75 Q602 30 602 -41 Q602 -130 523 -182.5 Q444 -235 307 -235 Q185 -235 117.5 -196 Q50 -157 50 -88 Z M375 359 Q375 393 358.5 411 Q342 429 310 429 Q278 429 261 410.5 Q244 392 244 359 Q244 326 261 307.5 Q278 289 310 289 Q342 289 358.5 307 Q375 325 375 359 Z M262 -20 Q250 -20 244.5 -20 Q239 -20 235 -19 Q230 -24 227 -33 Q224 -42 224 -52 Q224 -81 245.5 -94.5 Q267 -108 316 -108 Q370 -108 397 -95.5 Q424 -83 424 -59 Q424 -38 412.5 -29 Q401 -20 373 -20 L262 -20 Z " />
<glyph glyph-name="gcommaaccent" unicode="&#x123;" horiz-adv-x="632" d="M164 748 L388 936 L482 844 L310 627 L164 748 Z M50 -88 Q50 -59 63.5 -35 Q77 -11 105 9 Q83 25 72 46.5 Q61 68 61 94 Q61 121 76 153.5 Q91 186 123 226 Q95 252 80 286 Q65 320 65 359 Q65 445 131 500 Q197 555 310 555 Q346 555 379 548 Q412 541 443 527 L594 565 L594 408 L547 408 Q550 397 552 384.5 Q554 372 554 359 Q554 272 488.5 217.5 Q423 163 310 163 Q291 163 275 165 Q259 167 246 170 Q241 164 238.5 156.5 Q236 149 236 142 Q236 130 243 125 Q250 120 265 120 L422 120 Q503 120 552.5 75 Q602 30 602 -41 Q602 -130 523 -182.5 Q444 -235 307 -235 Q185 -235 117.5 -196 Q50 -157 50 -88 Z M375 359 Q375 393 358.5 411 Q342 429 310 429 Q278 429 261 410.5 Q244 392 244 359 Q244 326 261 307.5 Q278 289 310 289 Q342 289 358.5 307 Q375 325 375 359 Z M262 -20 Q250 -20 244.5 -20 Q239 -20 235 -19 Q230 -24 227 -33 Q224 -42 224 -52 Q224 -81 245.5 -94.5 Q267 -108 316 -108 Q370 -108 397 -95.5 Q424 -83 424 -59 Q424 -38 412.5 -29 Q401 -20 373 -20 L262 -20 Z " />
<glyph glyph-name="h" unicode="h" horiz-adv-x="686" d="M280 377 L280 0 L80 0 L80 791 L280 791 L280 510 L284 507 Q315 531 352 543.5 Q389 556 431 556 Q517 556 561.5 508 Q606 460 606 367 L606 0 L406 0 L406 326 Q406 368 396 384.5 Q386 401 359 401 Q338 401 316 394.5 Q294 388 280 377 Z " />
<glyph glyph-name="hcircumflex" unicode="&#x125;" horiz-adv-x="686" d="M181 939 L57 814 L-35 904 L112 1096 L247 1096 L396 904 L302 814 L181 939 Z M280 377 L280 0 L80 0 L80 791 L280 791 L280 510 L284 507 Q315 531 352 543.5 Q389 556 431 556 Q517 556 561.5 508 Q606 460 606 367 L606 0 L406 0 L406 326 Q406 368 396 384.5 Q386 401 359 401 Q338 401 316 394.5 Q294 388 280 377 Z " />
<glyph glyph-name="hbar" unicode="&#x127;" horiz-adv-x="686" d="M280 377 L280 0 L80 0 L80 614 L20 614 L20 710 L80 710 L80 791 L280 791 L280 710 L433 710 L433 614 L280 614 L280 510 L284 507 Q315 531 352 543.5 Q389 556 431 556 Q517 556 561.5 508 Q606 460 606 367 L606 0 L406 0 L406 326 Q406 368 396 384.5 Q386 401 359 401 Q338 401 316 394.5 Q294 388 280 377 Z " />
<glyph glyph-name="i" unicode="i" horiz-adv-x="360" d="M300 744 Q300 694 265.5 660.5 Q231 627 181 627 Q129 627 94.5 660.5 Q60 694 60 744 Q60 794 94.5 827 Q129 860 181 860 Q232 860 266 827 Q300 794 300 744 Z M280 545 L280 0 L80 0 L80 545 L280 545 Z " />
<glyph glyph-name="igrave" unicode="&#xec;" horiz-adv-x="360" d="M116 924 L288 707 L194 615 L-30 803 L116 924 Z M280 545 L280 0 L80 0 L80 545 L280 545 Z " />
<glyph glyph-name="iacute" unicode="&#xed;" horiz-adv-x="360" d="M391 803 L167 615 L73 707 L245 924 L391 803 Z M280 545 L280 0 L80 0 L80 545 L280 545 Z " />
<glyph glyph-name="icircumflex" unicode="&#xee;" horiz-adv-x="360" d="M181 732 L57 607 L-35 697 L112 889 L247 889 L396 697 L302 607 L181 732 Z M280 544 L280 -1 L80 -1 L80 544 L280 544 Z " />
<glyph glyph-name="idieresis" unicode="&#xef;" horiz-adv-x="360" d="M55 874 Q98 874 127 845.5 Q156 817 156 774 Q156 732 127 703.5 Q98 675 55 675 Q11 675 -18 703.5 Q-47 732 -47 774 Q-47 817 -18 845.5 Q11 874 55 874 Z M305 873 Q348 873 377.5 844.5 Q407 816 407 774 Q407 732 377.5 703.5 Q348 675 305 675 Q261 675 232 703.5 Q203 732 203 774 Q203 816 232 844.5 Q261 873 305 873 Z M280 544 L280 -1 L80 -1 L80 544 L280 544 Z " />
<glyph glyph-name="itilde" unicode="&#x129;" horiz-adv-x="360" d="M399 879 Q400 763 361 700.5 Q322 638 253 643 Q229 645 208 655 Q187 665 157 692 Q140 708 132 713 Q124 718 117 718 Q103 719 95.5 700.5 Q88 682 88 645 L-39 645 Q-40 760 -0.5 822 Q39 884 107 879 Q132 877 154 867 Q176 857 206 829 Q221 814 228.5 809.5 Q236 805 243 805 Q257 804 264.5 823 Q272 842 272 879 L399 879 Z M280 545 L280 0 L80 0 L80 545 L280 545 Z " />
<glyph glyph-name="imacron" unicode="&#x12b;" horiz-adv-x="360" d="M381 840 L381 708 L-21 708 L-21 840 L381 840 Z M280 545 L280 0 L80 0 L80 545 L280 545 Z " />
<glyph glyph-name="ibreve" unicode="&#x12d;" horiz-adv-x="360" d="M383 859 Q383 754 328.5 689.5 Q274 625 180 625 Q86 625 31.5 689.5 Q-23 754 -23 859 L103 859 Q105 815 125 789 Q145 763 180 763 Q215 763 235 789 Q255 815 257 859 L383 859 Z M280 545 L280 0 L80 0 L80 545 L280 545 Z " />
<glyph glyph-name="iogonek" unicode="&#x12f;" horiz-adv-x="360" d="M300 744 Q300 694 265.5 660.5 Q231 627 181 627 Q129 627 94.5 660.5 Q60 694 60 744 Q60 794 94.5 827 Q129 860 181 860 Q232 860 266 827 Q300 794 300 744 Z M280 -215 Q253 -225 220.5 -230.5 Q188 -236 154 -236 Q88 -236 44.5 -200 Q1 -164 1 -107 Q1 -73 15.5 -46 Q30 -19 59 0 Q64 3 69.5 6 Q75 9 80 12 L80 545 L280 545 L280 0 Q233 -9 203 -32 Q173 -55 173 -79 Q173 -93 183 -100.5 Q193 -108 213 -108 Q229 -108 245.5 -104 Q262 -100 280 -91 L280 -215 Z " />
<glyph glyph-name="dotlessi" unicode="&#x131;" horiz-adv-x="360" d="M280 545 L280 0 L80 0 L80 545 L280 545 Z " />
<glyph glyph-name="ij" unicode="&#x133;" horiz-adv-x="720" d="M300 744 Q300 694 265.5 660.5 Q231 627 181 627 Q129 627 94.5 660.5 Q60 694 60 744 Q60 794 94.5 827 Q129 860 181 860 Q232 860 266 827 Q300 794 300 744 Z M660 743 Q660 693 625.5 659.5 Q591 626 541 626 Q489 626 454.5 659.5 Q420 693 420 743 Q420 793 454.5 826 Q489 859 541 859 Q592 859 626 826 Q660 793 660 743 Z M280 545 L280 0 L80 0 L80 545 L280 545 Z M281 -58 Q325 -62 355 -58.5 Q385 -55 403 -43 Q422 -29 431 -3 Q440 23 440 67 L440 544 L640 544 L640 73 Q640 -22 618 -84 Q596 -146 551 -181 Q509 -214 441.5 -227 Q374 -240 281 -232 L281 -58 Z " />
<glyph glyph-name="j" unicode="j" horiz-adv-x="360" d="M300 744 Q300 694 265.5 660.5 Q231 627 181 627 Q129 627 94.5 660.5 Q60 694 60 744 Q60 794 94.5 827 Q129 860 181 860 Q232 860 266 827 Q300 794 300 744 Z M-79 -57 Q-35 -61 -5 -57.5 Q25 -54 43 -42 Q62 -28 71 -2 Q80 24 80 68 L80 545 L280 545 L280 74 Q280 -21 258 -83 Q236 -145 191 -180 Q149 -213 81.5 -226 Q14 -239 -79 -231 L-79 -57 Z " />
<glyph glyph-name="jcircumflex" unicode="&#x135;" horiz-adv-x="360" d="M179 733 L55 608 L-37 698 L110 890 L245 890 L394 698 L300 608 L179 733 Z M-79 -57 Q-35 -61 -5 -57.5 Q25 -54 43 -42 Q62 -28 71 -2 Q80 24 80 68 L80 545 L280 545 L280 74 Q280 -21 258 -83 Q236 -145 191 -180 Q149 -213 81.5 -226 Q14 -239 -79 -231 L-79 -57 Z " />
<glyph glyph-name="dotlessj" unicode="&#x237;" horiz-adv-x="360" d="M-79 -57 Q-35 -61 -5 -57.5 Q25 -54 43 -42 Q62 -28 71 -2 Q80 24 80 68 L80 545 L280 545 L280 74 Q280 -21 258 -83 Q236 -145 191 -180 Q149 -213 81.5 -226 Q14 -239 -79 -231 L-79 -57 Z " />
<glyph glyph-name="k" unicode="k" horiz-adv-x="626" d="M280 202 L280 0 L80 0 L80 791 L280 791 L280 352 Q299 352 311.5 368.5 Q324 385 351 438 Q360 455 371.5 478 Q383 501 405 545 L615 545 L495 349 Q475 315 459 296.5 Q443 278 435 278 L435 275 Q447 275 463 261 Q479 247 495 221 L631 0 L421 0 Q395 45 381.5 69 Q368 93 358 110 Q325 167 311 184.5 Q297 202 280 202 Z " />
<glyph glyph-name="kcommaaccent" unicode="&#x137;" horiz-adv-x="626" d="M280 202 L280 0 L80 0 L80 791 L280 791 L280 352 Q299 352 311.5 368.5 Q324 385 351 438 Q360 455 371.5 478 Q383 501 405 545 L615 545 L495 349 Q475 315 459 296.5 Q443 278 435 278 L435 275 Q447 275 463 261 Q479 247 495 221 L631 0 L421 0 Q395 45 381.5 69 Q368 93 358 110 Q325 167 311 184.5 Q297 202 280 202 Z M465 -164 L265 -321 L179 -236 L327 -50 L465 -164 Z " />
<glyph glyph-name="kgreenlandic" unicode="&#x138;" horiz-adv-x="626" d="M285 181 L285 0 L80 0 L80 545 L285 545 L285 360 Q309 360 318 368.5 Q327 377 337 402 Q341 413 347 430 Q353 447 362 473 Q366 486 371 502.5 Q376 519 384 545 L619 545 L527 367 Q508 330 492.5 310.5 Q477 291 461 283 L461 279 Q475 270 490 249 Q505 228 528 184 L626 0 L391 0 Q374 43 365.5 65.5 Q357 88 351 103 Q331 151 320 166 Q309 181 285 181 Z " />
<glyph glyph-name="l" unicode="l" horiz-adv-x="360" d="M280 791 L280 0 L80 0 L80 791 L280 791 Z " />
<glyph glyph-name="lacute" unicode="&#x13a;" horiz-adv-x="360" d="M377 1038 L153 850 L59 942 L231 1159 L377 1038 Z M280 791 L280 0 L80 0 L80 791 L280 791 Z " />
<glyph glyph-name="lcommaaccent" unicode="&#x13c;" horiz-adv-x="360" d="M280 791 L280 0 L80 0 L80 791 L280 791 Z M297 -164 L97 -321 L11 -236 L159 -50 L297 -164 Z " />
<glyph glyph-name="lcaron" unicode="&#x13e;" horiz-adv-x="360" d="M540 893 L426 624 L300 663 L355 935 L540 893 Z M280 791 L280 0 L80 0 L80 791 L280 791 Z " />
<glyph glyph-name="ldot" unicode="&#x140;" horiz-adv-x="469" d="M280 791 L280 0 L80 0 L80 791 L280 791 Z M560 509 Q560 459 525.5 425.5 Q491 392 441 392 Q389 392 354.5 425.5 Q320 459 320 509 Q320 559 354.5 592 Q389 625 441 625 Q492 625 526 592 Q560 559 560 509 Z " />
<glyph glyph-name="lslash" unicode="&#x142;" horiz-adv-x="360" d="M350 462 L280 418 L280 0 L80 0 L80 294 L10 250 L10 365 L80 409 L80 791 L280 791 L280 533 L350 577 L350 462 Z " />
<glyph glyph-name="m" unicode="m" horiz-adv-x="994" d="M280 377 L280 0 L80 0 L80 545 L280 545 L280 500 L284 497 Q322 528 359.5 542 Q397 556 440 556 Q483 556 515 541 Q547 526 567 496 Q607 526 652 541 Q697 556 748 556 Q830 556 872 509.5 Q914 463 914 372 L914 0 L714 0 L714 333 Q714 371 704.5 386 Q695 401 671 401 Q654 401 636 395 Q618 389 597 377 L597 0 L397 0 L397 333 Q397 371 387.5 386 Q378 401 353 401 Q334 401 314 394.5 Q294 388 280 377 Z " />
<glyph glyph-name="n" unicode="n" horiz-adv-x="686" d="M280 377 L280 0 L80 0 L80 545 L280 545 L280 510 L284 507 Q315 531 352 543.5 Q389 556 431 556 Q517 556 561.5 508 Q606 460 606 367 L606 0 L406 0 L406 326 Q406 368 396 384.5 Q386 401 359 401 Q338 401 316 394.5 Q294 388 280 377 Z " />
<glyph glyph-name="ntilde" unicode="&#xf1;" horiz-adv-x="686" d="M562 879 Q563 763 524 700.5 Q485 638 416 643 Q392 645 371 655 Q350 665 320 692 Q303 708 295 713 Q287 718 280 718 Q266 719 258.5 700.5 Q251 682 251 645 L124 645 Q123 760 162.5 822 Q202 884 270 879 Q295 877 317 867 Q339 857 369 829 Q384 814 391.5 809.5 Q399 805 406 805 Q420 804 427.5 823 Q435 842 435 879 L562 879 Z M280 377 L280 0 L80 0 L80 545 L280 545 L280 510 L284 507 Q315 531 352 543.5 Q389 556 431 556 Q517 556 561.5 508 Q606 460 606 367 L606 0 L406 0 L406 326 Q406 368 396 384.5 Q386 401 359 401 Q338 401 316 394.5 Q294 388 280 377 Z " />
<glyph glyph-name="nacute" unicode="&#x144;" horiz-adv-x="686" d="M571 803 L347 615 L253 707 L425 924 L571 803 Z M280 377 L280 0 L80 0 L80 545 L280 545 L280 510 L284 507 Q315 531 352 543.5 Q389 556 431 556 Q517 556 561.5 508 Q606 460 606 367 L606 0 L406 0 L406 326 Q406 368 396 384.5 Q386 401 359 401 Q338 401 316 394.5 Q294 388 280 377 Z " />
<glyph glyph-name="ncommaaccent" unicode="&#x146;" horiz-adv-x="686" d="M280 377 L280 0 L80 0 L80 545 L280 545 L280 510 L284 507 Q315 531 352 543.5 Q389 556 431 556 Q517 556 561.5 508 Q606 460 606 367 L606 0 L406 0 L406 326 Q406 368 396 384.5 Q386 401 359 401 Q338 401 316 394.5 Q294 388 280 377 Z M471 -164 L271 -321 L185 -236 L333 -50 L471 -164 Z " />
<glyph glyph-name="ncaron" unicode="&#x148;" horiz-adv-x="686" d="M342 771 L466 896 L558 806 L411 614 L276 614 L127 806 L221 896 L342 771 Z M280 377 L280 0 L80 0 L80 545 L280 545 L280 510 L284 507 Q315 531 352 543.5 Q389 556 431 556 Q517 556 561.5 508 Q606 460 606 367 L606 0 L406 0 L406 326 Q406 368 396 384.5 Q386 401 359 401 Q338 401 316 394.5 Q294 388 280 377 Z " />
<glyph glyph-name="napostrophe" unicode="&#x149;" horiz-adv-x="686" d="M127 754 L17 444 L-115 481 L-54 786 L127 754 Z M280 377 L280 0 L80 0 L80 545 L280 545 L280 510 L284 507 Q315 531 352 543.5 Q389 556 431 556 Q517 556 561.5 508 Q606 460 606 367 L606 0 L406 0 L406 326 Q406 368 396 384.5 Q386 401 359 401 Q338 401 316 394.5 Q294 388 280 377 Z " />
<glyph glyph-name="eng" unicode="&#x14b;" horiz-adv-x="686" d="M280 377 L280 0 L80 0 L80 545 L280 545 L280 510 L284 507 Q315 531 352 543.5 Q389 556 431 556 Q517 556 561.5 508 Q606 460 606 367 L606 74 Q606 -21 584 -83 Q562 -145 517 -180 Q475 -213 407.5 -226 Q340 -239 247 -231 L247 -57 Q291 -61 321 -57.5 Q351 -54 369 -42 Q388 -28 397 -2 Q406 24 406 68 L406 326 Q406 368 396 384.5 Q386 401 359 401 Q338 401 316 394.5 Q294 388 280 377 Z " />
<glyph glyph-name="o" unicode="o" horiz-adv-x="639" d="M599 272 Q599 141 524 65.5 Q449 -10 319 -10 Q189 -10 114.5 65.5 Q40 141 40 272 Q40 403 114.5 479 Q189 555 319 555 Q449 555 524 479 Q599 403 599 272 Z M398 272 Q398 338 378.5 370.5 Q359 403 319 403 Q280 403 260.5 370.5 Q241 338 241 272 Q241 206 260.5 174 Q280 142 319 142 Q359 142 378.5 174 Q398 206 398 272 Z " />
<glyph glyph-name="ograve" unicode="&#xf2;" horiz-adv-x="639" d="M239 924 L411 707 L317 615 L93 803 L239 924 Z M599 272 Q599 141 524 65.5 Q449 -10 319 -10 Q189 -10 114.5 65.5 Q40 141 40 272 Q40 403 114.5 479 Q189 555 319 555 Q449 555 524 479 Q599 403 599 272 Z M398 272 Q398 338 378.5 370.5 Q359 403 319 403 Q280 403 260.5 370.5 Q241 338 241 272 Q241 206 260.5 174 Q280 142 319 142 Q359 142 378.5 174 Q398 206 398 272 Z " />
<glyph glyph-name="oacute" unicode="&#xf3;" horiz-adv-x="639" d="M539 803 L315 615 L221 707 L393 924 L539 803 Z M599 272 Q599 141 524 65.5 Q449 -10 319 -10 Q189 -10 114.5 65.5 Q40 141 40 272 Q40 403 114.5 479 Q189 555 319 555 Q449 555 524 479 Q599 403 599 272 Z M398 272 Q398 338 378.5 370.5 Q359 403 319 403 Q280 403 260.5 370.5 Q241 338 241 272 Q241 206 260.5 174 Q280 142 319 142 Q359 142 378.5 174 Q398 206 398 272 Z " />
<glyph glyph-name="ocircumflex" unicode="&#xf4;" horiz-adv-x="639" d="M320 733 L196 608 L104 698 L251 890 L386 890 L535 698 L441 608 L320 733 Z M599 272 Q599 141 524 65.5 Q449 -10 319 -10 Q189 -10 114.5 65.5 Q40 141 40 272 Q40 403 114.5 479 Q189 555 319 555 Q449 555 524 479 Q599 403 599 272 Z M398 272 Q398 338 378.5 370.5 Q359 403 319 403 Q280 403 260.5 370.5 Q241 338 241 272 Q241 206 260.5 174 Q280 142 319 142 Q359 142 378.5 174 Q398 206 398 272 Z " />
<glyph glyph-name="otilde" unicode="&#xf5;" horiz-adv-x="639" d="M538 879 Q539 763 500 700.5 Q461 638 392 643 Q368 645 347 655 Q326 665 296 692 Q279 708 271 713 Q263 718 256 718 Q242 719 234.5 700.5 Q227 682 227 645 L100 645 Q99 760 138.5 822 Q178 884 246 879 Q271 877 293 867 Q315 857 345 829 Q360 814 367.5 809.5 Q375 805 382 805 Q396 804 403.5 823 Q411 842 411 879 L538 879 Z M599 272 Q599 141 524 65.5 Q449 -10 319 -10 Q189 -10 114.5 65.5 Q40 141 40 272 Q40 403 114.5 479 Q189 555 319 555 Q449 555 524 479 Q599 403 599 272 Z M398 272 Q398 338 378.5 370.5 Q359 403 319 403 Q280 403 260.5 370.5 Q241 338 241 272 Q241 206 260.5 174 Q280 142 319 142 Q359 142 378.5 174 Q398 206 398 272 Z " />
<glyph glyph-name="odieresis" unicode="&#xf6;" horiz-adv-x="639" d="M194 874 Q237 874 266 845.5 Q295 817 295 774 Q295 732 266 703.5 Q237 675 194 675 Q150 675 121 703.5 Q92 732 92 774 Q92 817 121 845.5 Q150 874 194 874 Z M444 873 Q487 873 516.5 844.5 Q546 816 546 774 Q546 732 516.5 703.5 Q487 675 444 675 Q400 675 371 703.5 Q342 732 342 774 Q342 816 371 844.5 Q400 873 444 873 Z M599 272 Q599 141 524 65.5 Q449 -10 319 -10 Q189 -10 114.5 65.5 Q40 141 40 272 Q40 403 114.5 479 Q189 555 319 555 Q449 555 524 479 Q599 403 599 272 Z M398 272 Q398 338 378.5 370.5 Q359 403 319 403 Q280 403 260.5 370.5 Q241 338 241 272 Q241 206 260.5 174 Q280 142 319 142 Q359 142 378.5 174 Q398 206 398 272 Z " />
<glyph glyph-name="omacron" unicode="&#x14d;" horiz-adv-x="639" d="M520 840 L520 708 L118 708 L118 840 L520 840 Z M599 272 Q599 141 524 65.5 Q449 -10 319 -10 Q189 -10 114.5 65.5 Q40 141 40 272 Q40 403 114.5 479 Q189 555 319 555 Q449 555 524 479 Q599 403 599 272 Z M398 272 Q398 338 378.5 370.5 Q359 403 319 403 Q280 403 260.5 370.5 Q241 338 241 272 Q241 206 260.5 174 Q280 142 319 142 Q359 142 378.5 174 Q398 206 398 272 Z " />
<glyph glyph-name="obreve" unicode="&#x14f;" horiz-adv-x="639" d="M522 859 Q522 754 467.5 689.5 Q413 625 319 625 Q225 625 170.5 689.5 Q116 754 116 859 L242 859 Q244 815 264 789 Q284 763 319 763 Q354 763 374 789 Q394 815 396 859 L522 859 Z M599 272 Q599 141 524 65.5 Q449 -10 319 -10 Q189 -10 114.5 65.5 Q40 141 40 272 Q40 403 114.5 479 Q189 555 319 555 Q449 555 524 479 Q599 403 599 272 Z M398 272 Q398 338 378.5 370.5 Q359 403 319 403 Q280 403 260.5 370.5 Q241 338 241 272 Q241 206 260.5 174 Q280 142 319 142 Q359 142 378.5 174 Q398 206 398 272 Z " />
<glyph glyph-name="ohungarumlaut" unicode="&#x151;" horiz-adv-x="639" d="M384 855 L213 618 L99 684 L213 937 L384 855 Z M641 797 L425 600 L328 688 L491 912 L641 797 Z M599 272 Q599 141 524 65.5 Q449 -10 319 -10 Q189 -10 114.5 65.5 Q40 141 40 272 Q40 403 114.5 479 Q189 555 319 555 Q449 555 524 479 Q599 403 599 272 Z M398 272 Q398 338 378.5 370.5 Q359 403 319 403 Q280 403 260.5 370.5 Q241 338 241 272 Q241 206 260.5 174 Q280 142 319 142 Q359 142 378.5 174 Q398 206 398 272 Z " />
<glyph glyph-name="oslash" unicode="&#xf8;" horiz-adv-x="639" d="M319 -10 Q274 -10 234.5 -0.5 Q195 9 164 27 L124 -20 L64 30 L104 77 Q73 113 56.5 162.5 Q40 212 40 272 Q40 403 114.5 479 Q189 555 319 555 Q365 555 404.5 545 Q444 535 475 517 L516 565 L576 515 L536 467 Q566 431 582.5 381.5 Q599 332 599 272 Q599 141 524 65.5 Q449 -10 319 -10 Z M241 272 Q241 264 241.5 256 Q242 248 242 241 L365 387 Q356 395 344.5 399 Q333 403 319 403 Q280 403 260.5 370.5 Q241 338 241 272 Z M398 272 Q398 280 397.5 288 Q397 296 397 303 L274 157 Q283 150 294 146 Q305 142 319 142 Q359 142 378.5 174 Q398 206 398 272 Z " />
<glyph glyph-name="oslashacute" unicode="&#x1ff;" horiz-adv-x="639" d="M532 803 L308 615 L214 707 L386 924 L532 803 Z M319 -10 Q274 -10 234.5 -0.5 Q195 9 164 27 L124 -20 L64 30 L104 77 Q73 113 56.5 162.5 Q40 212 40 272 Q40 403 114.5 479 Q189 555 319 555 Q365 555 404.5 545 Q444 535 475 517 L516 565 L576 515 L536 467 Q566 431 582.5 381.5 Q599 332 599 272 Q599 141 524 65.5 Q449 -10 319 -10 Z M241 272 Q241 264 241.5 256 Q242 248 242 241 L365 387 Q356 395 344.5 399 Q333 403 319 403 Q280 403 260.5 370.5 Q241 338 241 272 Z M398 272 Q398 280 397.5 288 Q397 296 397 303 L274 157 Q283 150 294 146 Q305 142 319 142 Q359 142 378.5 174 Q398 206 398 272 Z " />
<glyph glyph-name="oe" unicode="&#x153;" horiz-adv-x="955" d="M892 21 Q847 5 800.5 -3 Q754 -11 704 -11 Q644 -11 594.5 5 Q545 21 508 50 Q473 21 425 5.5 Q377 -10 319 -10 Q189 -10 114.5 65.5 Q40 141 40 272 Q40 403 114.5 479 Q189 555 319 555 Q375 555 421.5 540.5 Q468 526 503 499 Q537 526 582.5 541 Q628 556 682 556 Q793 556 854 496.5 Q915 437 915 330 Q915 302 911 274 Q907 246 900 223 L599 223 Q608 179 637.5 159.5 Q667 140 725 140 Q759 140 794 146 Q829 152 892 172 L892 21 Z M752 359 Q752 394 732.5 413.5 Q713 433 678 433 Q639 433 617.5 408 Q596 383 595 335 L750 335 Q751 337 751.5 341.5 Q752 346 752 359 Z M398 272 Q398 338 378.5 370.5 Q359 403 319 403 Q280 403 260.5 370.5 Q241 338 241 272 Q241 206 260.5 174 Q280 142 319 142 Q359 142 378.5 174 Q398 206 398 272 Z " />
<glyph glyph-name="p" unicode="p" horiz-adv-x="666" d="M280 15 L280 -224 L80 -224 L80 545 L280 545 L280 505 L283 503 Q307 529 342 542.5 Q377 556 419 556 Q512 556 569 479.5 Q626 403 626 281 Q626 150 565.5 69.5 Q505 -11 403 -11 Q374 -11 342.5 -3 Q311 5 285 18 L280 15 Z M338 404 Q319 404 304 396.5 Q289 389 280 375 L280 157 Q290 150 304.5 146.5 Q319 143 334 143 Q378 143 402 177.5 Q426 212 426 274 Q426 334 403 369 Q380 404 338 404 Z " />
<glyph glyph-name="thorn" unicode="&#xfe;" horiz-adv-x="666" d="M280 15 L280 -224 L80 -224 L80 791 L280 791 L280 505 L283 503 Q307 529 342 542.5 Q377 556 419 556 Q512 556 569 479.5 Q626 403 626 281 Q626 150 565.5 69.5 Q505 -11 403 -11 Q374 -11 342.5 -3 Q311 5 285 18 L280 15 Z M338 404 Q319 404 304 396.5 Q289 389 280 375 L280 157 Q290 150 304.5 146.5 Q319 143 334 143 Q378 143 402 177.5 Q426 212 426 274 Q426 333 403 368.5 Q380 404 338 404 Z " />
<glyph glyph-name="q" unicode="q" horiz-adv-x="666" d="M383 43 Q363 18 327.5 3.5 Q292 -11 251 -11 Q154 -11 97 64 Q40 139 40 262 Q40 397 100 476.5 Q160 556 268 556 Q302 556 336 547 Q370 538 399 521 L586 555 L586 -224 L386 -224 L386 41 L383 43 Z M386 388 Q376 395 361.5 398.5 Q347 402 332 402 Q288 402 264 366.5 Q240 331 240 269 Q240 210 262.5 175.5 Q285 141 327 141 Q347 141 362 148.5 Q377 156 386 170 L386 388 Z " />
<glyph glyph-name="r" unicode="r" horiz-adv-x="491" d="M280 292 L280 0 L80 0 L80 545 L280 545 L280 480 L284 477 Q321 520 354.5 538 Q388 556 426 556 Q436 556 447 555 Q458 554 471 551 L471 346 Q452 349 444.5 349.5 Q437 350 431 350 Q373 350 337.5 336.5 Q302 323 280 292 Z " />
<glyph glyph-name="racute" unicode="&#x155;" horiz-adv-x="491" d="M508 803 L284 615 L190 707 L362 924 L508 803 Z M280 292 L280 0 L80 0 L80 545 L280 545 L280 480 L284 477 Q321 520 354.5 538 Q388 556 426 556 Q436 556 447 555 Q458 554 471 551 L471 346 Q452 349 444.5 349.5 Q437 350 431 350 Q373 350 337.5 336.5 Q302 323 280 292 Z " />
<glyph glyph-name="rcommaaccent" unicode="&#x157;" horiz-adv-x="491" d="M280 292 L280 0 L80 0 L80 545 L280 545 L280 480 L284 477 Q321 520 354.5 538 Q388 556 426 556 Q436 556 447 555 Q458 554 471 551 L471 346 Q452 349 444.5 349.5 Q437 350 431 350 Q373 350 337.5 336.5 Q302 323 280 292 Z M329 -164 L129 -321 L43 -236 L191 -50 L329 -164 Z " />
<glyph glyph-name="rcaron" unicode="&#x159;" horiz-adv-x="491" d="M271 771 L395 896 L487 806 L340 614 L205 614 L56 806 L150 896 L271 771 Z M280 292 L280 0 L80 0 L80 545 L280 545 L280 480 L284 477 Q321 520 354.5 538 Q388 556 426 556 Q436 556 447 555 Q458 554 471 551 L471 346 Q452 349 444.5 349.5 Q437 350 431 350 Q373 350 337.5 336.5 Q302 323 280 292 Z " />
<glyph glyph-name="s" unicode="s" horiz-adv-x="534" d="M484 170 Q484 89 420.5 38.5 Q357 -12 259 -12 Q205 -12 153.5 -3.5 Q102 5 61 21 L61 181 Q99 160 147 146.5 Q195 133 235 133 Q266 133 280 140 Q294 147 294 162 Q294 174 281.5 182.5 Q269 191 225 203 Q173 218 147 230 Q121 242 103 259 Q79 281 67 311.5 Q55 342 55 381 Q55 466 114.5 510.5 Q174 555 288 555 Q332 555 373.5 549 Q415 543 458 530 L458 375 Q432 390 385 400.5 Q338 411 296 411 Q268 411 256.5 405 Q245 399 245 384 Q245 373 257 365 Q269 357 313 345 Q364 330 390 318 Q416 306 434 290 Q459 268 471.5 238 Q484 208 484 170 Z " />
<glyph glyph-name="sacute" unicode="&#x15b;" horiz-adv-x="534" d="M484 803 L260 615 L166 707 L338 924 L484 803 Z M484 170 Q484 89 420.5 38.5 Q357 -12 259 -12 Q205 -12 153.5 -3.5 Q102 5 61 21 L61 181 Q99 160 147 146.5 Q195 133 235 133 Q266 133 280 140 Q294 147 294 162 Q294 174 281.5 182.5 Q269 191 225 203 Q173 218 147 230 Q121 242 103 259 Q79 281 67 311.5 Q55 342 55 381 Q55 466 114.5 510.5 Q174 555 288 555 Q332 555 373.5 549 Q415 543 458 530 L458 375 Q432 390 385 400.5 Q338 411 296 411 Q268 411 256.5 405 Q245 399 245 384 Q245 373 257 365 Q269 357 313 345 Q364 330 390 318 Q416 306 434 290 Q459 268 471.5 238 Q484 208 484 170 Z " />
<glyph glyph-name="scircumflex" unicode="&#x15d;" horiz-adv-x="534" d="M270 733 L146 608 L54 698 L201 890 L336 890 L485 698 L391 608 L270 733 Z M484 170 Q484 89 420.5 38.5 Q357 -12 259 -12 Q205 -12 153.5 -3.5 Q102 5 61 21 L61 181 Q99 160 147 146.5 Q195 133 235 133 Q266 133 280 140 Q294 147 294 162 Q294 174 281.5 182.5 Q269 191 225 203 Q173 218 147 230 Q121 242 103 259 Q79 281 67 311.5 Q55 342 55 381 Q55 466 114.5 510.5 Q174 555 288 555 Q332 555 373.5 549 Q415 543 458 530 L458 375 Q432 390 385 400.5 Q338 411 296 411 Q268 411 256.5 405 Q245 399 245 384 Q245 373 257 365 Q269 357 313 345 Q364 330 390 318 Q416 306 434 290 Q459 268 471.5 238 Q484 208 484 170 Z " />
<glyph glyph-name="scedilla" unicode="&#x15f;" horiz-adv-x="534" d="M415 -107 Q415 -164 371.5 -200 Q328 -236 262 -236 Q228 -236 195.5 -230.5 Q163 -225 136 -215 L136 -91 Q156 -100 170.5 -104 Q185 -108 199 -108 Q220 -108 231.5 -96 Q243 -84 243 -63 Q243 -49 238.5 -37 Q234 -25 222 -11 Q178 -9 136.5 -0.5 Q95 8 61 21 L61 181 Q99 160 147 146.5 Q195 133 235 133 Q266 133 280 140 Q294 147 294 162 Q294 174 281.5 182.5 Q269 191 225 203 Q173 218 147 230 Q121 242 103 259 Q79 281 67 311.5 Q55 342 55 381 Q55 466 114.5 510.5 Q174 555 288 555 Q332 555 373.5 549 Q415 543 458 530 L458 375 Q432 390 385 400.5 Q338 411 296 411 Q268 411 256.5 405 Q245 399 245 384 Q245 373 257 365 Q269 357 313 345 Q364 330 390 318 Q416 306 434 290 Q459 268 471.5 238 Q484 208 484 170 Q484 112 450 68.5 Q416 25 359 4 Q369 -3 374.5 -9 Q380 -15 385 -21 Q400 -40 407.5 -61 Q415 -82 415 -107 Z " />
<glyph glyph-name="scaron" unicode="&#x161;" horiz-adv-x="534" d="M265 771 L389 896 L481 806 L334 614 L199 614 L50 806 L144 896 L265 771 Z M484 170 Q484 89 420.5 38.5 Q357 -12 259 -12 Q205 -12 153.5 -3.5 Q102 5 61 21 L61 181 Q99 160 147 146.5 Q195 133 235 133 Q266 133 280 140 Q294 147 294 162 Q294 174 281.5 182.5 Q269 191 225 203 Q173 218 147 230 Q121 242 103 259 Q79 281 67 311.5 Q55 342 55 381 Q55 466 114.5 510.5 Q174 555 288 555 Q332 555 373.5 549 Q415 543 458 530 L458 375 Q432 390 385 400.5 Q338 411 296 411 Q268 411 256.5 405 Q245 399 245 384 Q245 373 257 365 Q269 357 313 345 Q364 330 390 318 Q416 306 434 290 Q459 268 471.5 238 Q484 208 484 170 Z " />
<glyph glyph-name="scommaaccent" unicode="&#x219;" horiz-adv-x="534" d="M484 170 Q484 89 420.5 38.5 Q357 -12 259 -12 Q205 -12 153.5 -3.5 Q102 5 61 21 L61 181 Q99 160 147 146.5 Q195 133 235 133 Q266 133 280 140 Q294 147 294 162 Q294 174 281.5 182.5 Q269 191 225 203 Q173 218 147 230 Q121 242 103 259 Q79 281 67 311.5 Q55 342 55 381 Q55 466 114.5 510.5 Q174 555 288 555 Q332 555 373.5 549 Q415 543 458 530 L458 375 Q432 390 385 400.5 Q338 411 296 411 Q268 411 256.5 405 Q245 399 245 384 Q245 373 257 365 Q269 357 313 345 Q364 330 390 318 Q416 306 434 290 Q459 268 471.5 238 Q484 208 484 170 Z M394 -164 L194 -321 L108 -236 L256 -50 L394 -164 Z " />
<glyph glyph-name="longs" unicode="&#x17f;" horiz-adv-x="479" d="M312 545 L312 0 L112 0 L112 395 L30 395 L30 545 L113 545 Q121 673 184 737 Q247 801 367 801 Q400 801 436 796 Q472 791 509 781 L509 619 Q477 629 450 633 Q423 637 393 637 Q350 637 331 616.5 Q312 596 312 545 Z " />
<glyph glyph-name="germandbls" unicode="&#xdf;" horiz-adv-x="864" d="M112 0 L112 395 L30 395 L30 545 L113 545 Q122 664 207.5 732.5 Q293 801 439 801 Q569 801 649 743.5 Q729 686 729 602 Q729 553 708 516.5 Q687 480 626 440 Q593 419 584 407.5 Q575 396 575 384 Q575 373 587 365 Q599 357 643 345 Q694 330 720 318 Q746 306 764 290 Q789 268 801.5 238 Q814 208 814 170 Q814 89 750.5 38.5 Q687 -12 589 -12 Q535 -12 483.5 -3.5 Q432 5 391 21 L391 181 Q429 160 477 146.5 Q525 133 565 133 Q596 133 610 140 Q624 147 624 162 Q624 174 611.5 182.5 Q599 191 555 203 Q503 218 477 230 Q451 242 433 259 Q409 281 397 311.5 Q385 342 385 381 Q385 423 403.5 454.5 Q422 486 477 522 Q510 544 519.5 556 Q529 568 529 581 Q529 606 502.5 621.5 Q476 637 435 637 Q368 637 340 601 Q312 565 312 476 L312 0 L112 0 Z " />
<glyph glyph-name="t" unicode="t" horiz-adv-x="500" d="M470 13 Q437 1 401 -4.5 Q365 -10 327 -10 Q225 -10 166.5 43.5 Q108 97 108 191 L108 395 L20 395 L20 545 L108 545 L108 689 L308 689 L308 545 L460 545 L460 395 L308 395 L308 255 Q308 201 324.5 181.5 Q341 162 381 162 Q398 162 420.5 165.5 Q443 169 470 176 L470 13 Z " />
<glyph glyph-name="tcommaaccent" unicode="&#x21b;" horiz-adv-x="500" d="M470 13 Q437 1 401 -4.5 Q365 -10 327 -10 Q225 -10 166.5 43.5 Q108 97 108 191 L108 395 L20 395 L20 545 L108 545 L108 689 L308 689 L308 545 L460 545 L460 395 L308 395 L308 255 Q308 201 324.5 181.5 Q341 162 381 162 Q398 162 420.5 165.5 Q443 169 470 176 L470 13 Z M420 -164 L220 -321 L134 -236 L282 -50 L420 -164 Z " />
<glyph glyph-name="tcaron" unicode="&#x165;" horiz-adv-x="500" d="M568 863 L454 594 L328 633 L383 905 L568 863 Z M470 13 Q437 1 401 -4.5 Q365 -10 327 -10 Q225 -10 166.5 43.5 Q108 97 108 191 L108 395 L20 395 L20 545 L108 545 L108 689 L308 689 L308 545 L460 545 L460 395 L308 395 L308 255 Q308 201 324.5 181.5 Q341 162 381 162 Q398 162 420.5 165.5 Q443 169 470 176 L470 13 Z " />
<glyph glyph-name="tbar" unicode="&#x167;" horiz-adv-x="500" d="M470 13 Q437 1 401 -4.5 Q365 -10 327 -10 Q225 -10 166.5 43.5 Q108 97 108 191 L108 225 L30 225 L30 321 L108 321 L108 395 L20 395 L20 545 L108 545 L108 689 L308 689 L308 545 L460 545 L460 395 L308 395 L308 321 L449 321 L449 225 L309 225 Q313 189 330 175.5 Q347 162 381 162 Q398 162 420.5 165.5 Q443 169 470 176 L470 13 Z " />
<glyph glyph-name="u" unicode="u" horiz-adv-x="686" d="M402 37 Q371 13 334 0.5 Q297 -12 255 -12 Q169 -12 124.5 36 Q80 84 80 177 L80 544 L280 544 L280 218 Q280 176 290 159.5 Q300 143 327 143 Q348 143 370 149.5 Q392 156 406 167 L406 544 L606 544 L606 0 L406 0 L406 34 L402 37 Z " />
<glyph glyph-name="ugrave" unicode="&#xf9;" horiz-adv-x="686" d="M270 924 L442 707 L348 615 L124 803 L270 924 Z M402 37 Q371 13 334 0.5 Q297 -12 255 -12 Q169 -12 124.5 36 Q80 84 80 177 L80 544 L280 544 L280 218 Q280 176 290 159.5 Q300 143 327 143 Q348 143 370 149.5 Q392 156 406 167 L406 544 L606 544 L606 0 L406 0 L406 34 L402 37 Z " />
<glyph glyph-name="uacute" unicode="&#xfa;" horiz-adv-x="686" d="M564 803 L340 615 L246 707 L418 924 L564 803 Z M402 37 Q371 13 334 0.5 Q297 -12 255 -12 Q169 -12 124.5 36 Q80 84 80 177 L80 544 L280 544 L280 218 Q280 176 290 159.5 Q300 143 327 143 Q348 143 370 149.5 Q392 156 406 167 L406 544 L606 544 L606 0 L406 0 L406 34 L402 37 Z " />
<glyph glyph-name="ucircumflex" unicode="&#xfb;" horiz-adv-x="686" d="M344 733 L220 608 L128 698 L275 890 L410 890 L559 698 L465 608 L344 733 Z M402 37 Q371 13 334 0.5 Q297 -12 255 -12 Q169 -12 124.5 36 Q80 84 80 177 L80 544 L280 544 L280 218 Q280 176 290 159.5 Q300 143 327 143 Q348 143 370 149.5 Q392 156 406 167 L406 544 L606 544 L606 0 L406 0 L406 34 L402 37 Z " />
<glyph glyph-name="udieresis" unicode="&#xfc;" horiz-adv-x="686" d="M218 874 Q261 874 290 845.5 Q319 817 319 774 Q319 732 290 703.5 Q261 675 218 675 Q174 675 145 703.5 Q116 732 116 774 Q116 817 145 845.5 Q174 874 218 874 Z M468 873 Q511 873 540.5 844.5 Q570 816 570 774 Q570 732 540.5 703.5 Q511 675 468 675 Q424 675 395 703.5 Q366 732 366 774 Q366 816 395 844.5 Q424 873 468 873 Z M402 37 Q371 13 334 0.5 Q297 -12 255 -12 Q169 -12 124.5 36 Q80 84 80 177 L80 544 L280 544 L280 218 Q280 176 290 159.5 Q300 143 327 143 Q348 143 370 149.5 Q392 156 406 167 L406 544 L606 544 L606 0 L406 0 L406 34 L402 37 Z " />
<glyph glyph-name="utilde" unicode="&#x169;" horiz-adv-x="686" d="M579 879 Q580 763 541 700.5 Q502 638 433 643 Q409 645 388 655 Q367 665 337 692 Q320 708 312 713 Q304 718 297 718 Q283 719 275.5 700.5 Q268 682 268 645 L141 645 Q140 760 179.5 822 Q219 884 287 879 Q312 877 334 867 Q356 857 386 829 Q401 814 408.5 809.5 Q416 805 423 805 Q437 804 444.5 823 Q452 842 452 879 L579 879 Z M402 37 Q371 13 334 0.5 Q297 -12 255 -12 Q169 -12 124.5 36 Q80 84 80 177 L80 544 L280 544 L280 218 Q280 176 290 159.5 Q300 143 327 143 Q348 143 370 149.5 Q392 156 406 167 L406 544 L606 544 L606 0 L406 0 L406 34 L402 37 Z " />
<glyph glyph-name="umacron" unicode="&#x16b;" horiz-adv-x="686" d="M544 840 L544 708 L142 708 L142 840 L544 840 Z M402 37 Q371 13 334 0.5 Q297 -12 255 -12 Q169 -12 124.5 36 Q80 84 80 177 L80 544 L280 544 L280 218 Q280 176 290 159.5 Q300 143 327 143 Q348 143 370 149.5 Q392 156 406 167 L406 544 L606 544 L606 0 L406 0 L406 34 L402 37 Z " />
<glyph glyph-name="ubreve" unicode="&#x16d;" horiz-adv-x="686" d="M546 860 Q546 755 491.5 690.5 Q437 626 343 626 Q249 626 194.5 690.5 Q140 755 140 860 L266 860 Q268 816 288 790 Q308 764 343 764 Q378 764 398 790 Q418 816 420 860 L546 860 Z M402 37 Q371 13 334 0.5 Q297 -12 255 -12 Q169 -12 124.5 36 Q80 84 80 177 L80 544 L280 544 L280 218 Q280 176 290 159.5 Q300 143 327 143 Q348 143 370 149.5 Q392 156 406 167 L406 544 L606 544 L606 0 L406 0 L406 34 L402 37 Z " />
<glyph glyph-name="uring" unicode="&#x16f;" horiz-adv-x="686" d="M343 928 Q408 928 452.5 883.5 Q497 839 497 774 Q497 710 452.5 665 Q408 620 343 620 Q279 620 234 665 Q189 710 189 774 Q189 839 234 883.5 Q279 928 343 928 Z M343 823 Q321 823 307.5 810 Q294 797 294 774 Q294 752 307.5 738.5 Q321 725 343 725 Q365 725 378.5 738.5 Q392 752 392 774 Q392 796 378.5 809.5 Q365 823 343 823 Z M402 37 Q371 13 334 0.5 Q297 -12 255 -12 Q169 -12 124.5 36 Q80 84 80 177 L80 544 L280 544 L280 218 Q280 176 290 159.5 Q300 143 327 143 Q348 143 370 149.5 Q392 156 406 167 L406 544 L606 544 L606 0 L406 0 L406 34 L402 37 Z " />
<glyph glyph-name="uhungarumlaut" unicode="&#x171;" horiz-adv-x="686" d="M419 855 L248 618 L134 684 L248 937 L419 855 Z M676 797 L460 600 L363 688 L526 912 L676 797 Z M402 37 Q371 13 334 0.5 Q297 -12 255 -12 Q169 -12 124.5 36 Q80 84 80 177 L80 544 L280 544 L280 218 Q280 176 290 159.5 Q300 143 327 143 Q348 143 370 149.5 Q392 156 406 167 L406 544 L606 544 L606 0 L406 0 L406 34 L402 37 Z " />
<glyph glyph-name="uogonek" unicode="&#x173;" horiz-adv-x="686" d="M606 -215 Q579 -225 546.5 -230.5 Q514 -236 480 -236 Q414 -236 370.5 -200 Q327 -164 327 -107 Q327 -73 341.5 -46 Q356 -19 385 0 Q390 3 395.5 6 Q401 9 406 12 L406 34 L402 37 Q371 13 334 0.5 Q297 -12 255 -12 Q169 -12 124.5 36 Q80 84 80 177 L80 544 L280 544 L280 218 Q280 176 290 159.5 Q300 143 327 143 Q348 143 370 149.5 Q392 156 406 167 L406 544 L606 544 L606 0 Q559 -9 529 -32 Q499 -55 499 -79 Q499 -93 509 -100.5 Q519 -108 539 -108 Q555 -108 571.5 -104 Q588 -100 606 -91 L606 -215 Z " />
<glyph glyph-name="v" unicode="v" horiz-adv-x="593" d="M593 545 L386 0 L206 0 L0 545 L214 545 L275 299 Q284 263 289 237.5 Q294 212 295 198 L298 198 Q299 212 304 237.5 Q309 263 318 299 L378 545 L593 545 Z " />
<glyph glyph-name="w" unicode="w" horiz-adv-x="856" d="M401 135 L360 0 L180 0 L0 545 L204 545 L251 317 Q258 287 261.5 265.5 Q265 244 265 232 L267 232 Q268 244 272.5 265.5 Q277 287 284 317 L339 545 L519 545 L572 317 Q579 287 583 265.5 Q587 244 588 232 L590 232 Q591 244 595 265.5 Q599 287 605 317 L654 545 L856 545 L676 0 L496 0 L455 135 Q443 174 437 203.5 Q431 233 430 252 L426 252 Q426 233 419.5 203.5 Q413 174 401 135 Z " />
<glyph glyph-name="wcircumflex" unicode="&#x175;" horiz-adv-x="856" d="M429 733 L305 608 L213 698 L360 890 L495 890 L644 698 L550 608 L429 733 Z M401 135 L360 0 L180 0 L0 545 L204 545 L251 317 Q258 287 261.5 265.5 Q265 244 265 232 L267 232 Q268 244 272.5 265.5 Q277 287 284 317 L339 545 L519 545 L572 317 Q579 287 583 265.5 Q587 244 588 232 L590 232 Q591 244 595 265.5 Q599 287 605 317 L654 545 L856 545 L676 0 L496 0 L455 135 Q443 174 437 203.5 Q431 233 430 252 L426 252 Q426 233 419.5 203.5 Q413 174 401 135 Z " />
<glyph glyph-name="wgrave" unicode="&#x1e81;" horiz-adv-x="856" d="M350 924 L522 707 L428 615 L204 803 L350 924 Z M401 135 L360 0 L180 0 L0 545 L204 545 L251 317 Q258 287 261.5 265.5 Q265 244 265 232 L267 232 Q268 244 272.5 265.5 Q277 287 284 317 L339 545 L519 545 L572 317 Q579 287 583 265.5 Q587 244 588 232 L590 232 Q591 244 595 265.5 Q599 287 605 317 L654 545 L856 545 L676 0 L496 0 L455 135 Q443 174 437 203.5 Q431 233 430 252 L426 252 Q426 233 419.5 203.5 Q413 174 401 135 Z " />
<glyph glyph-name="wacute" unicode="&#x1e83;" horiz-adv-x="856" d="M641 803 L417 615 L323 707 L495 924 L641 803 Z M401 135 L360 0 L180 0 L0 545 L204 545 L251 317 Q258 287 261.5 265.5 Q265 244 265 232 L267 232 Q268 244 272.5 265.5 Q277 287 284 317 L339 545 L519 545 L572 317 Q579 287 583 265.5 Q587 244 588 232 L590 232 Q591 244 595 265.5 Q599 287 605 317 L654 545 L856 545 L676 0 L496 0 L455 135 Q443 174 437 203.5 Q431 233 430 252 L426 252 Q426 233 419.5 203.5 Q413 174 401 135 Z " />
<glyph glyph-name="wdieresis" unicode="&#x1e85;" horiz-adv-x="856" d="M303 874 Q346 874 375 845.5 Q404 817 404 774 Q404 732 375 703.5 Q346 675 303 675 Q259 675 230 703.5 Q201 732 201 774 Q201 817 230 845.5 Q259 874 303 874 Z M553 873 Q596 873 625.5 844.5 Q655 816 655 774 Q655 732 625.5 703.5 Q596 675 553 675 Q509 675 480 703.5 Q451 732 451 774 Q451 816 480 844.5 Q509 873 553 873 Z M401 135 L360 0 L180 0 L0 545 L204 545 L251 317 Q258 287 261.5 265.5 Q265 244 265 232 L267 232 Q268 244 272.5 265.5 Q277 287 284 317 L339 545 L519 545 L572 317 Q579 287 583 265.5 Q587 244 588 232 L590 232 Q591 244 595 265.5 Q599 287 605 317 L654 545 L856 545 L676 0 L496 0 L455 135 Q443 174 437 203.5 Q431 233 430 252 L426 252 Q426 233 419.5 203.5 Q413 174 401 135 Z " />
<glyph glyph-name="x" unicode="x" horiz-adv-x="619" d="M305 141 L230 0 L10 0 L196 285 L19 545 L239 545 L315 416 L318 416 L379 545 L599 545 L421 270 L609 0 L389 0 L309 141 L305 141 Z " />
<glyph glyph-name="y" unicode="y" horiz-adv-x="613" d="M396 0 Q340 -140 278.5 -187 Q217 -234 102 -234 Q86 -234 69 -233.5 Q52 -233 33 -231 L33 -57 Q52 -58 61 -58.5 Q70 -59 77 -59 Q132 -59 167.5 -44 Q203 -29 216 0 L0 545 L214 545 L285 299 Q295 267 300 244 Q305 221 305 208 L308 208 Q309 221 314 244 Q319 267 328 299 L398 545 L613 545 L396 0 Z " />
<glyph glyph-name="yacute" unicode="&#xfd;" horiz-adv-x="613" d="M533 803 L309 615 L215 707 L387 924 L533 803 Z M396 0 Q340 -140 278.5 -187 Q217 -234 102 -234 Q86 -234 69 -233.5 Q52 -233 33 -231 L33 -57 Q52 -58 61 -58.5 Q70 -59 77 -59 Q132 -59 167.5 -44 Q203 -29 216 0 L0 545 L214 545 L285 299 Q295 267 300 244 Q305 221 305 208 L308 208 Q309 221 314 244 Q319 267 328 299 L398 545 L613 545 L396 0 Z " />
<glyph glyph-name="ydieresis" unicode="&#xff;" horiz-adv-x="613" d="M181 874 Q224 874 253 845.5 Q282 817 282 774 Q282 732 253 703.5 Q224 675 181 675 Q137 675 108 703.5 Q79 732 79 774 Q79 817 108 845.5 Q137 874 181 874 Z M431 873 Q474 873 503.5 844.5 Q533 816 533 774 Q533 732 503.5 703.5 Q474 675 431 675 Q387 675 358 703.5 Q329 732 329 774 Q329 816 358 844.5 Q387 873 431 873 Z M396 0 Q340 -140 278.5 -187 Q217 -234 102 -234 Q86 -234 69 -233.5 Q52 -233 33 -231 L33 -57 Q52 -58 61 -58.5 Q70 -59 77 -59 Q132 -59 167.5 -44 Q203 -29 216 0 L0 545 L214 545 L285 299 Q295 267 300 244 Q305 221 305 208 L308 208 Q309 221 314 244 Q319 267 328 299 L398 545 L613 545 L396 0 Z " />
<glyph glyph-name="ycircumflex" unicode="&#x177;" horiz-adv-x="613" d="M308 733 L184 608 L92 698 L239 890 L374 890 L523 698 L429 608 L308 733 Z M396 0 Q340 -140 278.5 -187 Q217 -234 102 -234 Q86 -234 69 -233.5 Q52 -233 33 -231 L33 -57 Q52 -58 61 -58.5 Q70 -59 77 -59 Q132 -59 167.5 -44 Q203 -29 216 0 L0 545 L214 545 L285 299 Q295 267 300 244 Q305 221 305 208 L308 208 Q309 221 314 244 Q319 267 328 299 L398 545 L613 545 L396 0 Z " />
<glyph glyph-name="ygrave" unicode="&#x1ef3;" horiz-adv-x="613" d="M231 924 L403 707 L309 615 L85 803 L231 924 Z M396 0 Q340 -140 278.5 -187 Q217 -234 102 -234 Q86 -234 69 -233.5 Q52 -233 33 -231 L33 -57 Q52 -58 61 -58.5 Q70 -59 77 -59 Q132 -59 167.5 -44 Q203 -29 216 0 L0 545 L214 545 L285 299 Q295 267 300 244 Q305 221 305 208 L308 208 Q309 221 314 244 Q319 267 328 299 L398 545 L613 545 L396 0 Z " />
<glyph glyph-name="z" unicode="z" horiz-adv-x="554" d="M514 162 L514 0 L50 0 L50 128 L254 379 L252 383 L60 383 L60 545 L503 545 L503 417 L297 165 L299 162 L514 162 Z " />
<glyph glyph-name="zacute" unicode="&#x17a;" horiz-adv-x="564" d="M480 803 L256 615 L162 707 L334 924 L480 803 Z M514 162 L514 0 L50 0 L50 128 L254 379 L252 383 L60 383 L60 545 L503 545 L503 417 L297 165 L299 162 L514 162 Z " />
<glyph glyph-name="zdotaccent" unicode="&#x17c;" horiz-adv-x="564" d="M402 744 Q402 694 367.5 660.5 Q333 627 283 627 Q231 627 196.5 660.5 Q162 694 162 744 Q162 794 196.5 827 Q231 860 283 860 Q334 860 368 827 Q402 794 402 744 Z M514 162 L514 0 L50 0 L50 128 L254 379 L252 383 L60 383 L60 545 L503 545 L503 417 L297 165 L299 162 L514 162 Z " />
<glyph glyph-name="zcaron" unicode="&#x17e;" horiz-adv-x="564" d="M282 771 L406 896 L498 806 L351 614 L216 614 L67 806 L161 896 L282 771 Z M514 162 L514 0 L50 0 L50 128 L254 379 L252 383 L60 383 L60 545 L503 545 L503 417 L297 165 L299 162 L514 162 Z " />
<glyph glyph-name="ordfeminine" unicode="&#xaa;" horiz-adv-x="480" d="M278 480 Q253 456 230.5 447 Q208 438 179 438 Q127 438 97 468 Q67 498 67 548 Q67 603 109 630 Q151 657 237 657 L264 657 Q265 659 265 661 Q265 663 265 668 Q265 685 250 692.5 Q235 700 203 700 Q176 700 152.5 696 Q129 692 100 681 L100 787 Q128 795 159.5 798.5 Q191 802 226 802 Q324 802 365 763 Q406 724 406 636 L406 445 L295 445 L281 479 L278 480 Z M252 583 Q226 583 214 576.5 Q202 570 202 554 Q202 542 209.5 535 Q217 528 231 528 Q246 528 259 534 Q272 540 277 549 L277 583 L252 583 Z M420 392 L420 274 L60 274 L60 392 L420 392 Z " />
<glyph glyph-name="ordmasculine" unicode="&#xba;" horiz-adv-x="505" d="M445 617 Q445 533 393.5 484.5 Q342 436 252 436 Q162 436 111 484.5 Q60 533 60 617 Q60 701 111 750 Q162 799 252 799 Q342 799 393.5 750 Q445 701 445 617 Z M302 617 Q302 659 289.5 679.5 Q277 700 252 700 Q227 700 215 680 Q203 660 203 617 Q203 574 215 554 Q227 534 252 534 Q277 534 289.5 554.5 Q302 575 302 617 Z M432 392 L432 274 L72 274 L72 392 L432 392 Z " />
<glyph glyph-name="litre" unicode="&#x2113;" horiz-adv-x="523" d="M463 14 Q441 4 394 -3 Q347 -10 306 -10 Q225 -10 172.5 25.5 Q120 61 97 131 L59 98 L-14 201 L80 277 L80 503 Q80 653 138.5 727.5 Q197 802 314 802 Q400 802 451.5 746.5 Q503 691 503 602 Q503 512 447.5 427.5 Q392 343 281 261 Q284 202 302 181 Q320 160 365 160 Q387 160 412 164.5 Q437 169 463 177 L463 14 Z M280 546 L280 418 Q312 452 326.5 492.5 Q341 533 341 587 Q341 626 334 643.5 Q327 661 311 661 Q293 661 286.5 636 Q280 611 280 546 Z " />
<glyph glyph-name="ampersand" unicode="&#x26;" horiz-adv-x="855" d="M272 543 Q272 505 303.5 485.5 Q335 466 397 466 L815 466 L815 304 L683 304 L683 255 Q683 201 697 181.5 Q711 162 746 162 Q759 162 777.5 165 Q796 168 825 176 L825 13 Q792 1 759 -4.5 Q726 -10 692 -10 Q629 -10 583 13.5 Q537 37 512 84 Q504 75 495.5 67 Q487 59 477 51 Q458 36 438.5 24.5 Q419 13 398 6 Q376 -2 353.5 -6 Q331 -10 308 -10 Q194 -10 127 53.5 Q60 117 60 226 Q60 286 95 330.5 Q130 375 185 387 L185 391 Q135 405 104 454.5 Q73 504 73 568 Q73 665 141.5 720 Q210 775 335 775 Q398 775 460.5 762.5 Q523 750 566 728 L566 544 Q546 558 521.5 570 Q497 582 468 592 Q440 601 413 606 Q386 611 360 611 Q315 611 293.5 594.5 Q272 578 272 543 Z M260 232 Q260 193 285 173.5 Q310 154 359 154 Q403 154 434.5 169 Q466 184 483 213 L483 304 L397 304 Q317 304 288.5 287 Q260 270 260 232 Z " />
<glyph glyph-name="i.superior" unicode="&#x2071;" horiz-adv-x="311" d="M254 749 Q254 712 224.5 687.5 Q195 663 152 663 Q107 663 77 687.5 Q47 712 47 749 Q47 786 77 810 Q107 834 152 834 Q196 834 225 810 Q254 786 254 749 Z M247 623 L247 273 L64 273 L64 623 L247 623 Z " />
<glyph glyph-name="n.superior" unicode="&#x207f;" horiz-adv-x="532" d="M247 508 L247 273 L64 273 L64 623 L247 623 L247 602 L250 600 Q270 615 293 622.5 Q316 630 341 630 Q404 630 436 598.5 Q468 567 468 504 L468 273 L285 273 L285 477 Q285 499 282 507 Q279 515 270 515 Q266 515 260 513 Q254 511 247 508 Z " />
<glyph glyph-name="zero" unicode="0" horiz-adv-x="760" d="M700 381 Q700 192 618 91 Q536 -10 380 -10 Q223 -10 141.5 90.5 Q60 191 60 381 Q60 571 141.5 672 Q223 773 380 773 Q536 773 618 671.5 Q700 570 700 381 Z M496 381 Q496 494 467.5 548.5 Q439 603 380 603 Q321 603 292.5 549 Q264 495 264 381 Q264 267 292.5 213.5 Q321 160 380 160 Q439 160 467.5 214 Q496 268 496 381 Z " />
<glyph glyph-name="one" unicode="1" horiz-adv-x="564" d="M534 164 L534 0 L50 0 L50 164 L192 164 L192 517 L50 517 L50 663 Q68 663 84.5 665 Q101 667 115 672 Q131 677 144.5 685.5 Q158 694 168 705 Q180 719 186 733.5 Q192 748 192 763 L392 763 L392 164 L534 164 Z " />
<glyph glyph-name="two" unicode="2" horiz-adv-x="621" d="M561 164 L561 0 L50 0 L50 168 Q245 352 297.5 417.5 Q350 483 350 531 Q350 572 327 591 Q304 610 255 610 Q203 610 154.5 596 Q106 582 62 555 L62 728 Q105 749 167 762 Q229 775 288 775 Q410 775 479.5 715 Q549 655 549 545 Q549 471 494.5 391.5 Q440 312 290 168 L293 164 L561 164 Z " />
<glyph glyph-name="three" unicode="3" horiz-adv-x="617" d="M258 -10 Q232 -10 207 -8 Q182 -6 158 -3 Q127 2 102.5 7.5 Q78 13 60 20 L60 196 Q82 187 107.5 180 Q133 173 162 167 Q191 160 217.5 157 Q244 154 268 154 Q323 154 350 173 Q377 192 377 232 Q377 270 348.5 287 Q320 304 240 304 L149 304 L149 466 L240 466 Q302 466 333.5 485.5 Q365 505 365 543 Q365 578 343.5 594.5 Q322 611 277 611 Q251 611 224 606 Q197 601 169 592 Q140 582 115.5 570 Q91 558 71 544 L71 728 Q114 750 176.5 762.5 Q239 775 302 775 Q427 775 495.5 720 Q564 665 564 568 Q564 504 533 454.5 Q502 405 452 391 L452 387 Q507 375 542 330.5 Q577 286 577 226 Q577 115 492.5 52.5 Q408 -10 258 -10 Z " />
<glyph glyph-name="four" unicode="4" horiz-adv-x="708" d="M379 0 L379 163 L40 163 L40 315 L333 763 L579 763 L579 319 L658 319 L658 163 L579 163 L579 0 L379 0 Z M245 322 L246 319 L379 319 L379 460 Q379 488 380.5 516.5 Q382 545 384 573 L381 573 Q367 546 351.5 518 Q336 490 320 460 L245 322 Z " />
<glyph glyph-name="five" unicode="5" horiz-adv-x="643" d="M259 -11 Q235 -11 211 -9.5 Q187 -8 163 -4 Q134 0 110.5 5 Q87 10 70 17 L70 192 Q126 173 176 163 Q226 153 271 153 Q327 153 357.5 177.5 Q388 202 388 247 Q388 305 325.5 324 Q263 343 84 333 L84 763 L553 763 L553 599 L284 599 L284 487 Q427 494 507.5 433.5 Q588 373 588 255 Q588 130 501.5 59.5 Q415 -11 259 -11 Z " />
<glyph glyph-name="six" unicode="6" horiz-adv-x="711" d="M656 259 Q656 139 575.5 64 Q495 -11 361 -11 Q219 -11 139.5 87 Q60 185 60 356 Q60 560 151.5 667 Q243 774 416 774 Q463 774 517 765.5 Q571 757 608 743 L608 561 Q561 585 513 597.5 Q465 610 418 610 Q337 610 297 569.5 Q257 529 257 447 Q291 468 333.5 480 Q376 492 420 492 Q528 492 592 429 Q656 366 656 259 Z M456 243 Q456 291 432 316.5 Q408 342 363 342 Q334 342 307 332 Q280 322 261 304 Q261 235 289 194 Q317 153 367 153 Q407 153 431.5 177.5 Q456 202 456 243 Z " />
<glyph glyph-name="seven" unicode="7" horiz-adv-x="580" d="M550 611 L281 0 L80 0 L344 597 L343 599 L20 599 L20 763 L550 763 L550 611 Z " />
<glyph glyph-name="eight" unicode="8" horiz-adv-x="724" d="M664 229 Q664 125 578.5 57.5 Q493 -10 365 -10 Q225 -10 142.5 49 Q60 108 60 207 Q60 266 90 314 Q120 362 178 396 Q133 429 112 466.5 Q91 504 91 550 Q91 652 164 712.5 Q237 773 362 773 Q482 773 556 716.5 Q630 660 630 572 Q630 522 604 479.5 Q578 437 534 413 Q599 381 631.5 335 Q664 289 664 229 Z M429 545 Q429 578 409 597.5 Q389 617 355 617 Q327 617 309 600 Q291 583 291 556 Q291 531 313 511 Q335 491 384 474 Q409 493 419 509 Q429 525 429 545 Z M464 219 Q464 251 432 277 Q400 303 318 332 Q291 313 276 287.5 Q261 262 261 234 Q261 193 288 169.5 Q315 146 362 146 Q409 146 436.5 166 Q464 186 464 219 Z " />
<glyph glyph-name="nine" unicode="9" horiz-adv-x="711" d="M55 504 Q55 624 135.5 699 Q216 774 350 774 Q492 774 571.5 676 Q651 578 651 407 Q651 203 559.5 96 Q468 -11 295 -11 Q248 -11 194 -2.5 Q140 6 103 20 L103 202 Q150 178 198 165.5 Q246 153 293 153 Q374 153 414 193.5 Q454 234 454 316 Q420 295 377.5 283 Q335 271 291 271 Q183 271 119 334 Q55 397 55 504 Z M255 520 Q255 472 279 446.5 Q303 421 348 421 Q377 421 404 431 Q431 441 450 459 Q450 528 422 569 Q394 610 344 610 Q304 610 279.5 585.5 Q255 561 255 520 Z " />
<glyph glyph-name="dollar" unicode="&#x24;" horiz-adv-x="644" d="M594 234 Q594 148 552 91.5 Q510 35 429 10 L429 -78 L229 -78 L229 -9 Q181 -6 137.5 3 Q94 12 50 27 L50 213 Q99 185 158 170 Q217 155 278 155 Q326 155 350 170 Q374 185 374 215 Q374 236 354.5 253.5 Q335 271 266 299 Q200 327 168.5 345.5 Q137 364 114 386 Q82 417 66 456.5 Q50 496 50 545 Q50 627 96.5 682.5 Q143 738 229 759 L229 870 L429 870 L429 768 Q466 762 500 752.5 Q534 743 561 729 L561 533 Q522 566 464 585.5 Q406 605 347 605 Q305 605 285 593.5 Q265 582 265 558 Q265 535 286.5 515.5 Q308 496 382 464 Q445 437 475.5 419.5 Q506 402 528 383 Q561 353 577.5 316 Q594 279 594 234 Z " />
<glyph glyph-name="cent" unicode="&#xa2;" horiz-adv-x="510" d="M470 138 Q451 128 430.5 120.5 Q410 113 389 109 L389 0 L189 0 L189 125 Q119 156 79.5 223.5 Q40 291 40 382 Q40 478 79 545.5 Q118 613 189 643 L189 763 L389 763 L389 657 Q411 653 430 645 Q449 637 467 627 L467 464 Q440 484 404 495.5 Q368 507 332 507 Q286 507 262.5 476 Q239 445 239 385 Q239 326 263 294.5 Q287 263 332 263 Q370 263 406 274.5 Q442 286 470 306 L470 138 Z " />
<glyph glyph-name="sterling" unicode="&#xa3;" horiz-adv-x="688" d="M638 164 L638 0 L60 0 L60 164 L146 164 Q166 196 173.5 232 Q181 268 177 310 L74 310 L74 474 L142 474 Q137 499 134 522.5 Q131 546 131 564 Q131 656 199.5 714.5 Q268 773 378 773 Q457 773 518 760.5 Q579 748 614 725 L614 555 Q590 577 538 594.5 Q486 612 439 612 Q376 612 351 594 Q326 576 326 536 Q326 530 328.5 513.5 Q331 497 335 474 L592 474 L592 310 L356 310 Q358 266 352.5 229.5 Q347 193 334 164 L638 164 Z " />
<glyph glyph-name="yen" unicode="&#xa5;" horiz-adv-x="744" d="M646 115 L481 115 L481 0 L265 0 L265 115 L102 115 L102 216 L265 216 L265 281 L263 285 L102 285 L102 386 L207 386 L0 763 L243 763 L339 555 Q347 537 353.5 519 Q360 501 370 466 L376 466 Q384 495 391 515 Q398 535 407 555 L500 763 L744 763 L538 386 L646 386 L646 285 L483 285 L481 281 L481 216 L646 216 L646 115 Z " />
<glyph glyph-name="Euro" unicode="&#x20ac;" horiz-adv-x="714" d="M674 47 Q626 19 564 4.5 Q502 -10 435 -10 Q310 -10 226 58.5 Q142 127 112 246 L30 246 L30 347 L97 347 Q96 355 96 363.5 Q96 372 96 381 Q96 390 96 399 Q96 408 97 416 L30 416 L30 517 L113 517 Q144 637 234 705 Q324 773 459 773 Q519 773 570.5 761.5 Q622 750 669 727 L669 530 Q625 561 580.5 575 Q536 589 480 589 Q429 589 394.5 571 Q360 553 340 517 L552 517 L552 416 L315 416 Q315 408 314.5 399.5 Q314 391 314 382 Q314 373 314.5 364 Q315 355 315 347 L552 347 L552 246 L341 246 Q361 211 394 193 Q427 175 474 175 Q525 175 578 192 Q631 209 674 239 L674 47 Z " />
<glyph glyph-name="florin" unicode="&#x192;" horiz-adv-x="498" d="M286 22 Q277 -110 210.5 -172.5 Q144 -235 12 -235 Q-10 -235 -30 -234 Q-50 -233 -70 -231 L-70 -57 Q10 -67 46.5 -46 Q83 -25 86 29 L106 317 L15 317 L15 467 L117 467 L122 545 Q131 675 194 738 Q257 801 376 801 Q409 801 445 796 Q481 791 518 781 L518 619 Q486 629 459 633 Q432 637 402 637 Q361 637 343.5 618 Q326 599 322 545 L317 467 L441 467 L441 317 L306 317 L286 22 Z " />
<glyph glyph-name="numbersign" unicode="&#x23;" horiz-adv-x="864" d="M375 0 L426 181 L328 181 L277 0 L95 0 L146 181 L50 181 L50 341 L191 341 L211 415 L122 415 L122 575 L256 575 L309 763 L491 763 L438 575 L536 575 L589 763 L771 763 L718 575 L814 575 L814 415 L673 415 L653 341 L742 341 L742 181 L608 181 L557 0 L375 0 Z M373 341 L471 341 L491 415 L393 415 L373 341 Z " />
<glyph glyph-name="zeroinferior" unicode="&#x2080;" horiz-adv-x="584" d="M533 21 Q533 -99 471 -164.5 Q409 -230 292 -230 Q174 -230 112.5 -165 Q51 -100 51 21 Q51 142 113 207 Q175 272 292 272 Q409 272 471 206.5 Q533 141 533 21 Z M349 21 Q349 84 335 114.5 Q321 145 292 145 Q263 145 249 115 Q235 85 235 21 Q235 -43 249 -73 Q263 -103 292 -103 Q321 -103 335 -72.5 Q349 -42 349 21 Z " />
<glyph glyph-name="oneinferior" unicode="&#x2081;" horiz-adv-x="428" d="M401 -102 L401 -224 L39 -224 L39 -102 L129 -102 L129 95 L44 95 L44 204 Q61 204 75.5 207.5 Q90 211 100 218 Q115 227 122 239 Q129 251 129 266 L310 266 L310 -102 L401 -102 Z " />
<glyph glyph-name="twoinferior" unicode="&#x2082;" horiz-adv-x="474" d="M423 -102 L423 -224 L44 -224 L44 -103 Q151 -13 193.5 33.5 Q236 80 236 112 Q236 131 220.5 140.5 Q205 150 174 150 Q141 150 112 143 Q83 136 52 120 L52 248 Q86 261 132.5 267.5 Q179 274 231 274 Q314 274 364.5 234.5 Q415 195 415 125 Q415 77 381 28 Q347 -21 263 -99 L265 -102 L423 -102 Z " />
<glyph glyph-name="threeinferior" unicode="&#x2083;" horiz-adv-x="475" d="M438 -82 Q438 -155 377 -192.5 Q316 -230 198 -230 Q155 -230 118.5 -226 Q82 -222 51 -214 L51 -84 Q99 -96 138 -102 Q177 -108 208 -108 Q235 -108 246.5 -99.5 Q258 -91 258 -71 Q258 -54 243.5 -46.5 Q229 -39 194 -39 L123 -39 L123 82 L194 82 Q223 82 236.5 90.5 Q250 99 250 118 Q250 135 237 143.5 Q224 152 197 152 Q181 152 162.5 148 Q144 144 123 136 Q104 129 87.5 120.5 Q71 112 56 103 L56 242 Q91 257 139.5 265.5 Q188 274 236 274 Q330 274 379 238.5 Q428 203 428 137 Q428 97 407 66 Q386 35 353 25 L353 21 Q390 16 414 -13 Q438 -42 438 -82 Z " />
<glyph glyph-name="fourinferior" unicode="&#x2084;" horiz-adv-x="542" d="M274 -224 L274 -124 L37 -124 L37 -10 L229 266 L454 266 L454 -7 L503 -7 L503 -124 L454 -124 L454 -224 L274 -224 Z M207 -5 L206 -7 L274 -7 L274 55 Q274 57 274 88 Q274 119 276 137 L274 137 Q270 122 263 105.5 Q256 89 238 55 L207 -5 Z " />
<glyph glyph-name="fiveinferior" unicode="&#x2085;" horiz-adv-x="489" d="M445 -55 Q445 -140 379.5 -185.5 Q314 -231 192 -231 Q155 -231 121.5 -227.5 Q88 -224 57 -217 L57 -87 Q98 -98 134.5 -103.5 Q171 -109 204 -109 Q235 -109 250 -97.5 Q265 -86 265 -61 Q265 -37 244.5 -27 Q224 -17 178 -15 Q156 -14 128 -15 Q100 -16 66 -18 L66 266 L424 266 L424 143 L247 143 L247 96 Q342 98 393.5 59 Q445 20 445 -55 Z " />
<glyph glyph-name="sixinferior" unicode="&#x2086;" horiz-adv-x="550" d="M503 -53 Q503 -133 441.5 -182 Q380 -231 278 -231 Q174 -231 112.5 -166.5 Q51 -102 51 5 Q51 135 119.5 204 Q188 273 316 273 Q351 273 395.5 267.5 Q440 262 464 253 L464 117 Q432 133 394 142 Q356 151 316 151 Q271 151 249.5 129 Q228 107 228 59 Q251 72 281 79.5 Q311 87 342 87 Q415 87 459 49 Q503 11 503 -53 Z M323 -74 Q323 -49 314 -37 Q305 -25 286 -25 Q273 -25 258.5 -31 Q244 -37 233 -47 Q233 -77 246.5 -96.5 Q260 -116 284 -116 Q300 -116 311.5 -104.5 Q323 -93 323 -74 Z " />
<glyph glyph-name="seveninferior" unicode="&#x2087;" horiz-adv-x="449" d="M419 157 L247 -224 L67 -224 L230 143 L230 144 L23 144 L23 266 L419 266 L419 157 Z " />
<glyph glyph-name="eightinferior" unicode="&#x2088;" horiz-adv-x="549" d="M499 -71 Q499 -140 436 -185 Q373 -230 278 -230 Q172 -230 111.5 -192 Q51 -154 51 -89 Q51 -51 68.5 -22 Q86 7 121 28 Q95 51 84 73.5 Q73 96 73 124 Q73 194 125.5 233 Q178 272 274 272 Q365 272 420 235 Q475 198 475 141 Q475 108 460 82 Q445 56 417 42 Q458 22 478.5 -6 Q499 -34 499 -71 Z M303 120 Q303 137 294.5 146 Q286 155 269 155 Q257 155 251 149 Q245 143 245 132 Q245 118 255 108 Q265 98 288 88 Q299 101 301 107 Q303 113 303 120 Z M295 -43 Q286 -38 269 -30.5 Q252 -23 246 -20 Q234 -36 228.5 -48 Q223 -60 223 -70 Q223 -91 238 -102.5 Q253 -114 282 -114 Q303 -114 315.5 -105 Q328 -96 328 -82 Q328 -71 320 -61.5 Q312 -52 295 -43 Z " />
<glyph glyph-name="nineinferior" unicode="&#x2089;" horiz-adv-x="550" d="M322 -17 Q299 -30 269 -37.5 Q239 -45 208 -45 Q136 -45 91.5 -7 Q47 31 47 95 Q47 175 108.5 224 Q170 273 272 273 Q376 273 437.5 208.5 Q499 144 499 37 Q499 -93 430.5 -162 Q362 -231 234 -231 Q199 -231 154.5 -225.5 Q110 -220 86 -211 L86 -75 Q118 -91 156 -100 Q194 -109 234 -109 Q279 -109 300.5 -87 Q322 -65 322 -17 Z M317 89 Q317 119 303.5 138.5 Q290 158 266 158 Q250 158 238.5 146.5 Q227 135 227 116 Q227 91 236 79 Q245 67 264 67 Q277 67 291.5 73 Q306 79 317 89 Z " />
<glyph glyph-name="zerosuperior" unicode="&#x2070;" horiz-adv-x="584" d="M533 518 Q533 398 471 332.5 Q409 267 292 267 Q174 267 112.5 332 Q51 397 51 518 Q51 639 113 704 Q175 769 292 769 Q409 769 471 703.5 Q533 638 533 518 Z M349 518 Q349 581 335 611.5 Q321 642 292 642 Q263 642 249 612 Q235 582 235 518 Q235 454 249 424 Q263 394 292 394 Q321 394 335 424.5 Q349 455 349 518 Z " />
<glyph glyph-name="onesuperior" unicode="&#xb9;" horiz-adv-x="428" d="M401 395 L401 273 L39 273 L39 395 L129 395 L129 592 L44 592 L44 701 Q61 701 75.5 704.5 Q90 708 100 715 Q115 724 122 736 Q129 748 129 763 L310 763 L310 395 L401 395 Z " />
<glyph glyph-name="twosuperior" unicode="&#xb2;" horiz-adv-x="474" d="M423 395 L423 273 L44 273 L44 394 Q151 484 193.5 530.5 Q236 577 236 609 Q236 628 220.5 637.5 Q205 647 174 647 Q141 647 112 640 Q83 633 52 617 L52 745 Q86 758 132.5 764.5 Q179 771 231 771 Q314 771 364.5 731.5 Q415 692 415 622 Q415 574 381 525 Q347 476 263 398 L265 395 L423 395 Z " />
<glyph glyph-name="threesuperior" unicode="&#xb3;" horiz-adv-x="475" d="M438 415 Q438 342 377 304.5 Q316 267 198 267 Q155 267 118.5 271 Q82 275 51 283 L51 413 Q99 401 138 395 Q177 389 208 389 Q235 389 246.5 397.5 Q258 406 258 426 Q258 443 243.5 450.5 Q229 458 194 458 L123 458 L123 579 L194 579 Q223 579 236.5 587.5 Q250 596 250 615 Q250 632 237 640.5 Q224 649 197 649 Q181 649 162.5 645 Q144 641 123 633 Q104 626 87.5 617.5 Q71 609 56 600 L56 739 Q91 754 139.5 762.5 Q188 771 236 771 Q330 771 379 735.5 Q428 700 428 634 Q428 594 407 563 Q386 532 353 522 L353 518 Q390 513 414 484 Q438 455 438 415 Z " />
<glyph glyph-name="foursuperior" unicode="&#x2074;" horiz-adv-x="542" d="M274 273 L274 373 L37 373 L37 487 L229 763 L454 763 L454 490 L503 490 L503 373 L454 373 L454 273 L274 273 Z M207 492 L206 490 L274 490 L274 552 Q274 554 274 585 Q274 616 276 634 L274 634 Q270 619 263 602.5 Q256 586 238 552 L207 492 Z " />
<glyph glyph-name="fivesuperior" unicode="&#x2075;" horiz-adv-x="489" d="M445 442 Q445 357 379.5 311.5 Q314 266 192 266 Q155 266 121.5 269.5 Q88 273 57 280 L57 410 Q98 399 134.5 393.5 Q171 388 204 388 Q235 388 250 399.5 Q265 411 265 436 Q265 460 244.5 470 Q224 480 178 482 Q156 483 128 482 Q100 481 66 479 L66 763 L424 763 L424 640 L247 640 L247 593 Q342 595 393.5 556 Q445 517 445 442 Z " />
<glyph glyph-name="sixsuperior" unicode="&#x2076;" horiz-adv-x="550" d="M503 444 Q503 364 441.5 315 Q380 266 278 266 Q174 266 112.5 330.5 Q51 395 51 502 Q51 632 119.5 701 Q188 770 316 770 Q351 770 395.5 764.5 Q440 759 464 750 L464 614 Q432 630 394 639 Q356 648 316 648 Q271 648 249.5 626 Q228 604 228 556 Q251 569 281 576.5 Q311 584 342 584 Q415 584 459 546 Q503 508 503 444 Z M323 423 Q323 448 314 460 Q305 472 286 472 Q273 472 258.5 466 Q244 460 233 450 Q233 420 246.5 400.5 Q260 381 284 381 Q300 381 311.5 392.5 Q323 404 323 423 Z " />
<glyph glyph-name="sevensuperior" unicode="&#x2077;" horiz-adv-x="449" d="M419 654 L247 273 L67 273 L230 640 L230 641 L23 641 L23 763 L419 763 L419 654 Z " />
<glyph glyph-name="eightsuperior" unicode="&#x2078;" horiz-adv-x="549" d="M499 426 Q499 357 436 312 Q373 267 278 267 Q172 267 111.5 305 Q51 343 51 408 Q51 446 68.5 475 Q86 504 121 525 Q95 548 84 570.5 Q73 593 73 621 Q73 691 125.5 730 Q178 769 274 769 Q365 769 420 732 Q475 695 475 638 Q475 605 460 579 Q445 553 417 539 Q458 519 478.5 491 Q499 463 499 426 Z M303 617 Q303 634 294.5 643 Q286 652 269 652 Q257 652 251 646 Q245 640 245 629 Q245 615 255 605 Q265 595 288 585 Q299 598 301 604 Q303 610 303 617 Z M295 454 Q286 459 269 466.5 Q252 474 246 477 Q234 461 228.5 449 Q223 437 223 427 Q223 406 238 394.5 Q253 383 282 383 Q303 383 315.5 392 Q328 401 328 415 Q328 426 320 435.5 Q312 445 295 454 Z " />
<glyph glyph-name="ninesuperior" unicode="&#x2079;" horiz-adv-x="550" d="M322 480 Q299 467 269 459.5 Q239 452 208 452 Q136 452 91.5 490 Q47 528 47 592 Q47 672 108.5 721 Q170 770 272 770 Q376 770 437.5 705.5 Q499 641 499 534 Q499 404 430.5 335 Q362 266 234 266 Q199 266 154.5 271.5 Q110 277 86 286 L86 422 Q118 406 156 397 Q194 388 234 388 Q279 388 300.5 410 Q322 432 322 480 Z M317 586 Q317 616 303.5 635.5 Q290 655 266 655 Q250 655 238.5 643.5 Q227 632 227 613 Q227 588 236 576 Q245 564 264 564 Q277 564 291.5 570 Q306 576 317 586 Z " />
<glyph glyph-name="percent" unicode="&#x25;" horiz-adv-x="1332" d="M552 518 Q552 398 490 332.5 Q428 267 311 267 Q193 267 131.5 332 Q70 397 70 518 Q70 639 132 704 Q194 769 311 769 Q428 769 490 703.5 Q552 638 552 518 Z M915 763 L601 0 L419 0 L733 763 L915 763 Z M368 518 Q368 581 354 611.5 Q340 642 311 642 Q282 642 268 612 Q254 582 254 518 Q254 454 268 424 Q282 394 311 394 Q340 394 354 424.5 Q368 455 368 518 Z M1262 241 Q1262 121 1200 55.5 Q1138 -10 1021 -10 Q903 -10 841.5 55 Q780 120 780 241 Q780 362 842 427 Q904 492 1021 492 Q1138 492 1200 426.5 Q1262 361 1262 241 Z M1078 241 Q1078 304 1064 334.5 Q1050 365 1021 365 Q992 365 978 335 Q964 305 964 241 Q964 177 978 147 Q992 117 1021 117 Q1050 117 1064 147.5 Q1078 178 1078 241 Z " />
<glyph glyph-name="perthousand" unicode="&#x2030;" horiz-adv-x="1864" d="M552 519 Q552 399 490 333.5 Q428 268 311 268 Q193 268 131.5 333 Q70 398 70 519 Q70 640 132 705 Q194 770 311 770 Q428 770 490 704.5 Q552 639 552 519 Z M915 764 L601 1 L419 1 L733 764 L915 764 Z M368 519 Q368 582 354 612.5 Q340 643 311 643 Q282 643 268 613 Q254 583 254 519 Q254 455 268 425 Q282 395 311 395 Q340 395 354 425.5 Q368 456 368 519 Z M1262 242 Q1262 122 1200 56.5 Q1138 -9 1021 -9 Q903 -9 841.5 56 Q780 121 780 242 Q780 363 842 428 Q904 493 1021 493 Q1138 493 1200 427.5 Q1262 362 1262 242 Z M1794 241 Q1794 121 1732 55.5 Q1670 -10 1553 -10 Q1435 -10 1373.5 55 Q1312 120 1312 241 Q1312 362 1374 427 Q1436 492 1553 492 Q1670 492 1732 426.5 Q1794 361 1794 241 Z M1078 242 Q1078 305 1064 335.5 Q1050 366 1021 366 Q992 366 978 336 Q964 306 964 242 Q964 178 978 148 Q992 118 1021 118 Q1050 118 1064 148.5 Q1078 179 1078 242 Z M1610 241 Q1610 304 1596 334.5 Q1582 365 1553 365 Q1524 365 1510 335 Q1496 305 1496 241 Q1496 177 1510 147 Q1524 117 1553 117 Q1582 117 1596 147.5 Q1610 178 1610 241 Z " />
<glyph glyph-name="onequarter" unicode="&#xbc;" horiz-adv-x="1233" d="M432 395 L432 273 L70 273 L70 395 L160 395 L160 592 L75 592 L75 701 Q92 701 106.5 704.5 Q121 708 131 715 Q146 724 153 736 Q160 748 160 763 L341 763 L341 395 L432 395 Z M863 763 L549 0 L367 0 L681 763 L863 763 Z M934 0 L934 100 L697 100 L697 214 L889 490 L1114 490 L1114 217 L1163 217 L1163 100 L1114 100 L1114 0 L934 0 Z M867 219 L866 217 L934 217 L934 279 Q934 281 934 312 Q934 343 936 361 L934 361 Q930 346 923 329.5 Q916 313 898 279 L867 219 Z " />
<glyph glyph-name="onehalf" unicode="&#xbd;" horiz-adv-x="1236" d="M432 395 L432 273 L70 273 L70 395 L160 395 L160 592 L75 592 L75 701 Q92 701 106.5 704.5 Q121 708 131 715 Q146 724 153 736 Q160 748 160 763 L341 763 L341 395 L432 395 Z M863 763 L549 0 L367 0 L681 763 L863 763 Z M1166 122 L1166 0 L787 0 L787 121 Q894 211 936.5 257.5 Q979 304 979 336 Q979 355 963.5 364.5 Q948 374 917 374 Q884 374 855 367 Q826 360 795 344 L795 472 Q829 485 875.5 491.5 Q922 498 974 498 Q1057 498 1107.5 458.5 Q1158 419 1158 349 Q1158 301 1124 252 Q1090 203 1006 125 L1008 122 L1166 122 Z " />
<glyph glyph-name="threequarters" unicode="&#xbe;" horiz-adv-x="1229" d="M457 415 Q457 342 396 304.5 Q335 267 217 267 Q174 267 137.5 271 Q101 275 70 283 L70 413 Q118 401 157 395 Q196 389 227 389 Q254 389 265.5 397.5 Q277 406 277 426 Q277 443 262.5 450.5 Q248 458 213 458 L142 458 L142 579 L213 579 Q242 579 255.5 587.5 Q269 596 269 615 Q269 632 256 640.5 Q243 649 216 649 Q200 649 181.5 645 Q163 641 142 633 Q123 626 106.5 617.5 Q90 609 75 600 L75 739 Q110 754 158.5 762.5 Q207 771 255 771 Q349 771 398 735.5 Q447 700 447 634 Q447 594 426 563 Q405 532 372 522 L372 518 Q409 513 433 484 Q457 455 457 415 Z M859 763 L545 0 L363 0 L677 763 L859 763 Z M930 0 L930 100 L693 100 L693 214 L885 490 L1110 490 L1110 217 L1159 217 L1159 100 L1110 100 L1110 0 L930 0 Z M863 219 L862 217 L930 217 L930 279 Q930 281 930 312 Q930 343 932 361 L930 361 Q926 346 919 329.5 Q912 313 894 279 L863 219 Z " />
<glyph glyph-name="plus" unicode="&#x2b;" horiz-adv-x="742" d="M652 192 L456 192 L456 0 L286 0 L286 192 L90 192 L90 352 L286 352 L286 544 L456 544 L456 352 L652 352 L652 192 Z " />
<glyph glyph-name="minus" unicode="&#x2212;" horiz-adv-x="742" d="M652 352 L652 192 L90 192 L90 352 L652 352 Z " />
<glyph glyph-name="plusminus" unicode="&#xb1;" horiz-adv-x="742" d="M652 160 L652 0 L90 0 L90 160 L286 160 L286 248 L90 248 L90 408 L286 408 L286 544 L456 544 L456 408 L652 408 L652 248 L456 248 L456 160 L652 160 Z " />
<glyph glyph-name="multiply" unicode="&#xd7;" horiz-adv-x="731" d="M641 110 L528 -3 L366 159 L203 -3 L90 110 L252 272 L90 434 L204 547 L366 386 L527 547 L641 434 L479 272 L641 110 Z " />
<glyph glyph-name="divide" unicode="&#xf7;" horiz-adv-x="732" d="M471 506 Q471 463 440 432.5 Q409 402 366 402 Q323 402 292.5 432.5 Q262 463 262 506 Q262 549 292.5 579.5 Q323 610 366 610 Q409 610 440 579.5 Q471 549 471 506 Z M647 352 L647 192 L85 192 L85 352 L647 352 Z M471 38 Q471 -5 440 -35.5 Q409 -66 366 -66 Q323 -66 292.5 -35.5 Q262 -5 262 38 Q262 81 292.5 111.5 Q323 142 366 142 Q409 142 440 111.5 Q471 81 471 38 Z " />
<glyph glyph-name="equal" unicode="&#x3d;" horiz-adv-x="742" d="M652 492 L652 332 L90 332 L90 492 L652 492 Z M652 212 L652 52 L90 52 L90 212 L652 212 Z " />
<glyph glyph-name="approxequal" unicode="&#x2248;" horiz-adv-x="791" d="M425 533 Q460 512 475 506 Q490 500 502 500 Q528 500 539.5 521 Q551 542 551 595 L698 595 Q713 469 666 390 Q619 311 528 311 Q493 311 458 322.5 Q423 334 365 369 Q331 390 316 396 Q301 402 290 402 Q263 402 252 381.5 Q241 361 241 307 L94 307 Q80 433 126.5 512 Q173 591 263 591 Q298 591 333 579.5 Q368 568 425 533 Z M425 226 Q460 205 475 199 Q490 193 502 193 Q528 193 539.5 214 Q551 235 551 288 L698 288 Q713 162 666 83 Q619 4 528 4 Q493 4 458 15.5 Q423 27 365 62 Q331 83 316 89 Q301 95 290 95 Q263 95 252 74.5 Q241 54 241 0 L94 0 Q80 126 126.5 205 Q173 284 263 284 Q298 284 333 272.5 Q368 261 425 226 Z " />
<glyph glyph-name="notequal" unicode="&#x2260;" horiz-adv-x="724" d="M652 52 L328 52 L290 -40 L178 -40 L216 52 L90 52 L90 212 L282 212 L331 332 L90 332 L90 492 L397 492 L435 585 L547 585 L509 492 L652 492 L652 332 L443 332 L394 212 L652 212 L652 52 Z " />
<glyph glyph-name="less" unicode="&#x3c;" horiz-adv-x="742" d="M652 139 L597 -11 L90 202 L90 343 L597 556 L652 406 L337 273 L652 139 Z " />
<glyph glyph-name="greater" unicode="&#x3e;" horiz-adv-x="742" d="M652 202 L145 -11 L90 139 L405 273 L90 406 L145 556 L652 343 L652 202 Z " />
<glyph glyph-name="lessequal" unicode="&#x2264;" horiz-adv-x="742" d="M612 201 L100 344 L100 523 L612 665 L650 525 L302 433 L650 342 L612 201 Z M652 160 L652 0 L90 0 L90 160 L652 160 Z " />
<glyph glyph-name="greaterequal" unicode="&#x2265;" horiz-adv-x="742" d="M130 665 L642 523 L642 344 L130 201 L92 342 L440 433 L92 525 L130 665 Z M90 0 L90 160 L652 160 L652 0 L90 0 Z " />
<glyph glyph-name="logicalnot" unicode="&#xac;" horiz-adv-x="742" d="M90 352 L652 352 L652 0 L482 0 L482 192 L90 192 L90 352 Z " />
<glyph glyph-name="fraction" unicode="&#x2044;" horiz-adv-x="556" d="M526 763 L212 0 L30 0 L344 763 L526 763 Z " />
<glyph glyph-name="radical" unicode="&#x221a;" horiz-adv-x="677" d="M20 232 L20 392 L282 392 L305 299 Q314 263 319 237.5 Q324 212 325 198 L328 198 Q329 212 334 237.5 Q339 263 348 299 L462 763 L677 763 L416 0 L236 0 L148 232 L20 232 Z " />
<glyph glyph-name="infinity" unicode="&#x221e;" horiz-adv-x="1023" d="M732 545 Q842 545 912.5 470.5 Q983 396 983 278 Q983 153 913 76.5 Q843 0 732 0 Q657 0 598.5 32.5 Q540 65 501 128 Q472 71 415.5 35.5 Q359 0 291 0 Q181 0 110.5 74.5 Q40 149 40 267 Q40 392 110.5 468.5 Q181 545 292 545 Q367 545 425 512.5 Q483 480 522 417 Q551 474 607.5 509.5 Q664 545 732 545 Z M200 274 Q200 223 228 192 Q256 161 300 161 Q342 161 375 182.5 Q408 204 426 243 Q393 325 363.5 354.5 Q334 384 293 384 Q253 384 226.5 353.5 Q200 323 200 274 Z M823 271 Q823 323 795 353.5 Q767 384 722 384 Q680 384 647.5 362.5 Q615 341 597 302 Q632 219 661 190 Q690 161 730 161 Q770 161 796.5 191.5 Q823 222 823 271 Z " />
<glyph glyph-name="integral" unicode="&#x222b;" horiz-adv-x="485" d="M399 637 Q356 637 337.5 616.5 Q319 596 319 545 L316 21 Q315 -103 250 -169 Q185 -235 62 -235 Q29 -235 -7 -230 Q-43 -225 -80 -215 L-80 -53 Q-48 -63 -21 -67 Q6 -71 36 -71 Q79 -71 97.5 -50.5 Q116 -30 116 21 L119 545 Q120 669 185 735 Q250 801 373 801 Q406 801 442 796 Q478 791 515 781 L515 619 Q483 629 456 633 Q429 637 399 637 Z " />
<glyph glyph-name="partialdiff" unicode="&#x2202;" horiz-adv-x="641" d="M601 306 Q601 160 527 74.5 Q453 -11 324 -11 Q187 -11 113.5 63.5 Q40 138 40 273 Q40 397 110.5 474 Q181 551 301 556 Q263 590 211.5 621.5 Q160 653 96 682 L212 812 Q395 730 498 597 Q601 464 601 306 Z M243 272 Q243 204 262 172.5 Q281 141 320 141 Q360 141 379.5 173 Q399 205 399 272 Q399 339 379.5 371.5 Q360 404 320 404 Q281 404 262 372 Q243 340 243 272 Z " />
<glyph glyph-name="alpha" unicode="&#x3b1;" horiz-adv-x="731" d="M671 545 L584 273 L681 0 L516 0 L485 105 Q449 47 399 18 Q349 -11 286 -11 Q176 -11 108 67.5 Q40 146 40 265 Q40 391 112 473.5 Q184 556 296 556 Q357 556 405.5 528 Q454 500 484 448 L508 545 L671 545 Z M193 272 Q193 236 222.5 215 Q252 194 302 194 Q355 194 390.5 213 Q426 232 438 268 Q422 308 387 329 Q352 350 302 350 Q256 350 224.5 328 Q193 306 193 272 Z " />
<glyph glyph-name="beta" unicode="&#xa7b5;" horiz-adv-x="646" d="M233 31 L274 -224 L80 -224 L80 542 Q80 667 150 734.5 Q220 802 346 802 Q456 802 521 744.5 Q586 687 586 591 Q586 528 562.5 482 Q539 436 489 402 Q547 376 576.5 327.5 Q606 279 606 210 Q606 114 543 52 Q480 -10 383 -10 Q342 -10 301.5 1 Q261 12 233 31 Z M339 602 Q282 603 258 581.5 Q234 560 234 510 L234 211 Q258 198 286.5 191.5 Q315 185 346 185 Q399 185 424.5 202 Q450 219 450 253 Q450 285 429 301.5 Q408 318 366 318 Q344 314 327.5 312.5 Q311 311 291 311 L291 482 Q307 482 325.5 480.5 Q344 479 366 477 Q393 477 411.5 495 Q430 513 430 539 Q430 572 410 586.5 Q390 601 339 602 Z " />
<glyph glyph-name="delta" unicode="&#x3b4;" horiz-adv-x="644" d="M604 244 Q604 137 519.5 63 Q435 -11 317 -11 Q199 -11 119.5 60.5 Q40 132 40 241 Q40 319 78.5 383.5 Q117 448 184 482 Q135 518 114.5 551.5 Q94 585 94 632 Q94 698 161 750 Q228 802 328 802 Q404 802 469.5 791 Q535 780 602 756 L545 583 Q490 600 436.5 609.5 Q383 619 342 619 Q317 619 304.5 613 Q292 607 292 596 Q292 582 323 562 Q354 542 425 507 Q518 462 561 398.5 Q604 335 604 244 Z M193 269 Q193 223 225.5 199 Q258 175 320 175 Q380 175 415.5 199 Q451 223 451 264 Q451 304 414.5 338 Q378 372 315 392 Q269 383 231 346 Q193 309 193 269 Z " />
<glyph glyph-name="epsilon" unicode="&#x3b5;" horiz-adv-x="560" d="M334 383 Q292 383 269 374.5 Q246 366 246 351 Q246 338 257.5 330 Q269 322 290 322 Q322 329 355 333.5 Q388 338 416 338 L416 203 Q392 203 363 206 Q334 209 290 217 Q262 217 245.5 209.5 Q229 202 229 189 Q229 174 251.5 167.5 Q274 161 323 161 Q377 161 416 166.5 Q455 172 485 183 L530 56 Q488 23 421 6 Q354 -11 268 -11 Q162 -11 101 29.5 Q40 70 40 140 Q40 183 65.5 216 Q91 249 142 273 Q92 295 71 324 Q50 353 50 400 Q50 471 116.5 513.5 Q183 556 301 556 Q377 556 435.5 539.5 Q494 523 527 491 L482 360 Q442 372 405.5 377.5 Q369 383 334 383 Z " />
<glyph glyph-name="theta" unicode="&#x3b8;" horiz-adv-x="573" d="M286 797 Q397 797 465 685 Q533 573 533 391 Q533 209 465 97 Q397 -15 286 -15 Q176 -15 108 97 Q40 209 40 391 Q40 573 108 685 Q176 797 286 797 Z M286 599 Q247 599 222.5 557.5 Q198 516 192 440 L381 440 Q375 517 350.5 558 Q326 599 286 599 Z M286 183 Q326 183 351 225 Q376 267 381 345 L192 345 Q197 267 222 225 Q247 183 286 183 Z " />
<glyph glyph-name="lambda" unicode="&#x3bb;" horiz-adv-x="613" d="M102 779 Q217 779 278.5 732 Q340 685 396 545 L613 0 L398 0 L328 246 Q319 278 314 301 Q309 324 308 337 L305 337 Q305 324 300 301 Q295 278 285 246 L214 0 L0 0 L216 545 Q203 574 167.5 589 Q132 604 77 604 Q70 604 61 603.5 Q52 603 33 602 L33 776 Q52 778 69 778.5 Q86 779 102 779 Z " />
<glyph glyph-name="mu.math" unicode="&#xb5;" horiz-adv-x="686" d="M80 545 L280 545 L280 219 Q280 177 290 160.5 Q300 144 327 144 Q348 144 370 150.5 Q392 157 406 168 L406 545 L606 545 L606 1 L406 1 L406 35 L402 38 Q376 18 345 5.5 Q314 -7 280 -10 L280 -224 L80 -224 L80 545 Z " />
<glyph glyph-name="nu" unicode="&#x3bd;" horiz-adv-x="643" d="M228 0 Q183 168 131 292 Q79 416 0 545 L216 545 Q250 487 285.5 383 Q321 279 341 179 L343 179 Q373 239 396 338 Q419 437 429 545 L643 545 Q621 419 550.5 255 Q480 91 414 0 L228 0 Z " />
<glyph glyph-name="pi" unicode="&#x3c0;" horiz-adv-x="741" d="M10 395 L10 545 L691 545 L691 395 L589 395 L589 255 Q589 206 601.5 184 Q614 162 642 162 Q655 162 668 165 Q681 168 701 176 L701 13 Q669 -1 647.5 -5.5 Q626 -10 598 -10 Q500 -10 444.5 43 Q389 96 389 191 L389 395 L293 395 L293 0 L93 0 L93 395 L10 395 Z " />
<glyph glyph-name="rho" unicode="&#x3c1;" horiz-adv-x="644" d="M233 31 L274 -224 L80 -224 L80 545 L240 545 L240 473 Q266 511 307.5 532.5 Q349 554 395 554 Q495 554 549.5 483 Q604 412 604 280 Q604 151 541 70.5 Q478 -10 377 -10 Q338 -10 300.5 0.5 Q263 11 233 31 Z M344 340 Q312 340 284.5 328.5 Q257 317 239 295 L239 201 Q260 191 286.5 185.5 Q313 180 335 180 Q391 181 421 203 Q451 225 451 264 Q451 301 424 320.5 Q397 340 344 340 Z " />
<glyph glyph-name="increment" unicode="&#x2206;" horiz-adv-x="804" d="M25 0 L25 12 L393 763 L405 763 L779 12 L779 0 L25 0 Z M525 161 L400 434 L279 161 L525 161 Z " />
<glyph glyph-name="product" unicode="&#x220f;" horiz-adv-x="850" d="M520 -78 L520 633 L330 633 L330 -78 L130 -78 L130 633 L50 633 L50 793 L800 793 L800 633 L720 633 L720 -78 L520 -78 Z " />
<glyph glyph-name="summation" unicode="&#x2211;" horiz-adv-x="604" d="M564 602 L265 602 L505 347 L265 83 L564 83 L564 -78 L40 -78 L40 58 L300 347 L40 627 L40 763 L564 763 L564 602 Z " />
<glyph glyph-name="Omega" unicode="&#x3a9;" horiz-adv-x="848" d="M176 171 Q122 209 86 278.5 Q50 348 50 421 Q50 572 158 672.5 Q266 773 424 773 Q582 773 690 672.5 Q798 572 798 421 Q798 348 762 278.5 Q726 209 672 171 L781 171 L781 0 L481 0 L481 173 Q529 228 552 284 Q575 340 575 405 Q575 495 535 547 Q495 599 424 600 Q353 599 313 547 Q273 495 273 405 Q273 340 296 284 Q319 228 367 173 L367 0 L67 0 L67 171 L176 171 Z " />
<glyph glyph-name="lozenge" unicode="&#x25ca;" horiz-adv-x="629" d="M609 382 L609 380 L317 -11 L313 -11 L20 380 L20 382 L313 774 L317 774 L609 382 Z M315 259 L400 381 L315 503 L229 381 L315 259 Z " />
<glyph glyph-name="whitesquarebracketleft" unicode="&#x301a;" horiz-adv-x="688" d="M60 -224 L60 791 L678 791 L678 635 L569 635 L569 -68 L678 -68 L678 -224 L60 -224 Z M369 -68 L369 635 L260 635 L260 -68 L369 -68 Z " />
<glyph glyph-name="whitesquarebracketright" unicode="&#x301b;" horiz-adv-x="688" d="M10 635 L10 791 L628 791 L628 -224 L10 -224 L10 -68 L119 -68 L119 635 L10 635 Z M319 635 L319 -68 L428 -68 L428 635 L319 635 Z " />
<glyph glyph-name="parendblleft" unicode="&#x2e28;" horiz-adv-x="702" d="M260 284 Q260 147 291.5 33.5 Q323 -80 383 -160 L238 -255 Q152 -154 106 -14.5 Q60 125 60 283 Q60 440 106 579.5 Q152 719 238 823 L383 728 Q323 649 291.5 535.5 Q260 422 260 284 Z M569 284 Q569 147 600.5 33.5 Q632 -80 692 -160 L547 -255 Q461 -154 415 -14.5 Q369 125 369 283 Q369 440 415 579.5 Q461 719 547 823 L692 728 Q632 649 600.5 535.5 Q569 422 569 284 Z " />
<glyph glyph-name="parendblright" unicode="&#x2e29;" horiz-adv-x="702" d="M133 283 Q133 420 101.5 533.5 Q70 647 10 727 L155 822 Q241 721 287 581.5 Q333 442 333 284 Q333 127 287 -12.5 Q241 -152 155 -256 L10 -161 Q70 -82 101.5 31.5 Q133 145 133 283 Z M442 283 Q442 420 410.5 533.5 Q379 647 319 727 L464 822 Q550 721 596 581.5 Q642 442 642 284 Q642 127 596 -12.5 Q550 -152 464 -256 L319 -161 Q379 -82 410.5 31.5 Q442 145 442 283 Z " />
<glyph glyph-name="emptyset" unicode="&#x2205;" horiz-adv-x="867" d="M433 -13 Q377 -13 327.5 -1.5 Q278 10 237 31 L199 -20 L121 40 L156 87 Q101 139 70.5 214.5 Q40 290 40 381 Q40 556 147.5 666 Q255 776 433 776 Q489 776 538.5 764.5 Q588 753 630 732 L668 783 L746 723 L711 675 Q766 623 796.5 547.5 Q827 472 827 381 Q827 206 719.5 96.5 Q612 -13 433 -13 Z M259 381 Q259 347 266 317.5 Q273 288 286 265 L508 566 Q492 574 473 578 Q454 582 433 582 Q354 582 306.5 526 Q259 470 259 381 Z M607 381 Q607 414 600 443.5 Q593 473 580 497 L359 197 Q375 189 393.5 185 Q412 181 433 181 Q512 181 559.5 236.5 Q607 292 607 381 Z " />
<glyph glyph-name="Ndblstruck" unicode="&#x2115;" horiz-adv-x="807" d="M596 763 L717 763 L717 0 L562 0 L268 298 Q256 312 241.5 330 Q227 348 211 369 L208 369 Q210 346 210.5 327 Q211 308 211 293 L211 0 L90 0 L90 763 L245 763 L539 465 Q552 452 566 434 Q580 416 596 394 L599 394 Q598 418 597 437 Q596 456 596 470 L596 763 Z M599 121 L603 121 Q600 143 598 170 Q596 197 596 232 L234 605 Q227 612 222 618 Q217 624 207 645 L203 645 Q207 622 209 595 Q211 568 211 531 L573 158 Q583 148 588.5 140.5 Q594 133 599 121 Z " />
<glyph glyph-name="Zdblstruck" unicode="&#x2124;" horiz-adv-x="735" d="M70 654 L70 763 L665 763 L665 659 L416 112 L419 109 L675 109 L675 0 L60 0 L60 105 L309 651 L306 654 L70 654 Z M202 109 L277 109 L526 651 L523 654 L448 654 L199 112 L202 109 Z " />
<glyph glyph-name="Rdblstruck" unicode="&#x211d;" horiz-adv-x="898" d="M211 654 L211 0 L90 0 L90 763 L502 763 Q649 763 730 702 Q811 641 811 530 Q811 468 780.5 413.5 Q750 359 701 330 L868 0 L727 0 L587 301 Q577 298 564 297 Q551 296 521 296 L650 0 L519 0 L405 292 L392 292 L392 0 L281 0 L281 654 L211 654 Z M700 524 Q700 588 663.5 626.5 Q627 665 567 665 Q595 642 612.5 605.5 Q630 569 630 530 Q630 483 609.5 445 Q589 407 553 387 Q619 389 659.5 426 Q700 463 700 524 Z M519 527 Q519 594 484.5 630 Q450 666 392 664 L392 389 Q455 391 487 426 Q519 461 519 527 Z " />
<glyph glyph-name="union" unicode="&#x222a;" horiz-adv-x="782" d="M702 380 Q702 178 626 83.5 Q550 -11 391 -11 Q232 -11 156 83.5 Q80 178 80 380 L80 663 L240 663 L240 379 Q240 258 276.5 202 Q313 146 391 146 Q469 146 505.5 202 Q542 258 542 379 L542 663 L702 663 L702 380 Z " />
<glyph glyph-name="unionarray" unicode="&#x22c3;" horiz-adv-x="782" d="M702 380 Q702 178 626 83.5 Q550 -11 391 -11 Q232 -11 156 83.5 Q80 178 80 380 L80 663 L240 663 L240 379 Q240 258 276.5 202 Q313 146 391 146 Q469 146 505.5 202 Q542 258 542 379 L542 663 L702 663 L702 380 Z " />
<glyph glyph-name="propersubset" unicode="&#x2282;" horiz-adv-x="794" d="M451 80 Q249 80 154.5 156 Q60 232 60 391 Q60 550 154.5 626 Q249 702 451 702 L734 702 L734 547 L460 547 Q339 547 283 509.5 Q227 472 227 391 Q227 310 283 272.5 Q339 235 460 235 L734 235 L734 80 L451 80 Z " />
<glyph glyph-name="element" unicode="&#x2208;" horiz-adv-x="794" d="M734 235 L734 80 L451 80 Q249 80 154.5 156 Q60 232 60 391 Q60 550 154.5 626 Q249 702 451 702 L734 702 L734 547 L460 547 Q375 547 322 528.5 Q269 510 246 472 L689 472 L689 312 L245 312 Q268 272 321 253.5 Q374 235 460 235 L734 235 Z " />
<glyph glyph-name="notelement" unicode="&#x2209;" horiz-adv-x="794" d="M451 80 Q436 80 421.5 80.5 Q407 81 393 82 L359 0 L247 0 L287 96 Q170 123 115 196 Q60 269 60 391 Q60 550 154.5 626 Q249 702 451 702 L536 702 L561 763 L673 763 L648 702 L734 702 L734 547 L584 547 L553 472 L689 472 L689 312 L487 312 L456 235 Q457 235 458 235 Q459 235 460 235 L734 235 L734 80 L451 80 Z M460 547 Q375 547 322 528.5 Q269 510 246 472 L441 472 L472 547 L460 547 Z M245 312 Q259 287 284.5 270.5 Q310 254 348 246 L375 312 L245 312 Z " />
<glyph glyph-name="propersuperset" unicode="&#x2283;" horiz-adv-x="794" d="M343 702 Q545 702 639.5 626 Q734 550 734 391 Q734 232 639.5 156 Q545 80 343 80 L60 80 L60 235 L334 235 Q455 235 511 272.5 Q567 310 567 391 Q567 472 511 509.5 Q455 547 334 547 L60 547 L60 702 L343 702 Z " />
<glyph glyph-name="suchthat" unicode="&#x220b;" horiz-adv-x="794" d="M734 391 Q734 232 639.5 156 Q545 80 343 80 L60 80 L60 235 L334 235 Q420 235 473 253.5 Q526 272 549 312 L105 312 L105 472 L548 472 Q525 510 472 528.5 Q419 547 334 547 L60 547 L60 702 L343 702 Q545 702 639.5 626 Q734 550 734 391 Z " />
<glyph glyph-name="notcontains" unicode="&#x220c;" horiz-adv-x="794" d="M343 81 L252 81 L219 0 L107 0 L140 81 L60 81 L60 241 L206 241 L235 312 L105 312 L105 472 L301 472 L330 543 L60 543 L60 703 L343 703 Q357 703 370 702.5 Q383 702 396 702 L421 763 L533 763 L502 688 Q621 662 677.5 588.5 Q734 515 734 392 Q734 233 639.5 157 Q545 81 343 81 Z M413 472 L556 472 Q541 497 511.5 512.5 Q482 528 440 536 L413 472 Z M344 241 Q428 241 480.5 258.5 Q533 276 556 312 L347 312 L318 241 L344 241 Z " />
<glyph glyph-name="intersection" unicode="&#x2229;" horiz-adv-x="782" d="M80 283 Q80 485 156 579.5 Q232 674 391 674 Q550 674 626 579.5 Q702 485 702 283 L702 0 L542 0 L542 284 Q542 405 505.5 461 Q469 517 391 517 Q313 517 276.5 461 Q240 405 240 284 L240 0 L80 0 L80 283 Z " />
<glyph glyph-name="intersectionarray" unicode="&#x22c2;" horiz-adv-x="782" d="M80 283 Q80 485 156 579.5 Q232 674 391 674 Q550 674 626 579.5 Q702 485 702 283 L702 0 L542 0 L542 284 Q542 405 505.5 461 Q469 517 391 517 Q313 517 276.5 461 Q240 405 240 284 L240 0 L80 0 L80 283 Z " />
<glyph glyph-name="bulletoperator" unicode="&#x2219;" horiz-adv-x="324" d="M284 309 Q284 259 249 225.5 Q214 192 163 192 Q110 192 75 225.5 Q40 259 40 309 Q40 359 75.5 392 Q111 425 163 425 Q214 425 249 392 Q284 359 284 309 Z " />
<glyph glyph-name="arrowleft" unicode="&#x2190;" horiz-adv-x="1022" d="M971 222 L348 222 L348 92 L1 272 L1 273 L348 453 L348 323 L971 323 L971 222 Z " />
<glyph glyph-name="arrowup" unicode="&#x2191;" horiz-adv-x="363" d="M131 -213 L131 410 L1 410 L181 757 L182 757 L362 410 L232 410 L232 -213 L131 -213 Z " />
<glyph glyph-name="arrowright" unicode="&#x2192;" horiz-adv-x="1022" d="M51 323 L674 323 L674 453 L1021 273 L1021 272 L674 92 L674 222 L51 222 L51 323 Z " />
<glyph glyph-name="arrowdown" unicode="&#x2193;" horiz-adv-x="363" d="M232 757 L232 134 L362 134 L182 -213 L181 -213 L1 134 L131 134 L131 757 L232 757 Z " />
<glyph glyph-name="arrowleftfrombar" unicode="&#x21a4;" horiz-adv-x="1022" d="M328 456 L185 323 L870 323 L870 453 L971 453 L971 92 L870 92 L870 222 L186 222 L328 89 L256 17 L1 272 L1 273 L256 528 L328 456 Z " />
<glyph glyph-name="arrowrightfrombar" unicode="&#x21a6;" horiz-adv-x="1022" d="M694 89 L837 222 L152 222 L152 92 L51 92 L51 453 L152 453 L152 323 L836 323 L694 456 L766 528 L1021 273 L1021 272 L766 17 L694 89 Z " />
<glyph glyph-name="arrowupfrombar" unicode="&#x21a5;" horiz-adv-x="513" d="M425 430 L292 573 L292 -112 L422 -112 L422 -213 L61 -213 L61 -112 L191 -112 L191 572 L58 430 L-14 502 L241 757 L242 757 L497 502 L425 430 Z " />
<glyph glyph-name="arrowdownfrombar" unicode="&#x21a7;" horiz-adv-x="513" d="M73 114 L206 -29 L206 656 L76 656 L76 757 L437 757 L437 656 L307 656 L307 -28 L440 114 L512 42 L257 -213 L256 -213 L1 42 L73 114 Z " />
<glyph glyph-name="arrowdblleft" unicode="&#x21d0;" horiz-adv-x="1122" d="M429 557 L296 424 L1071 424 L1071 323 L194 323 L144 273 L144 272 L194 222 L1071 222 L1071 121 L296 121 L429 -12 L357 -84 L1 272 L1 273 L357 629 L429 557 Z " />
<glyph glyph-name="arrowdblright" unicode="&#x21d2;" horiz-adv-x="1122" d="M693 -12 L826 121 L51 121 L51 222 L928 222 L978 272 L978 273 L928 323 L51 323 L51 424 L826 424 L693 557 L765 629 L1121 273 L1121 272 L765 -84 L693 -12 Z " />
<glyph glyph-name="arrowdblboth" unicode="&#x21d4;" horiz-adv-x="1441" d="M429 557 L296 424 L1145 424 L1012 557 L1084 629 L1440 273 L1440 272 L1084 -84 L1012 -12 L1145 121 L296 121 L429 -12 L357 -84 L1 272 L1 273 L357 629 L429 557 Z M1247 222 L1297 272 L1297 273 L1247 323 L194 323 L144 273 L144 272 L194 222 L1247 222 Z " />
<glyph glyph-name="dblarrowleftrightstroke" unicode="&#x21ce;" horiz-adv-x="1441" d="M471 -144 L595 121 L296 121 L429 -12 L357 -84 L1 272 L1 273 L357 629 L429 557 L296 424 L736 424 L880 732 L972 689 L848 424 L1145 424 L1012 557 L1084 629 L1440 273 L1440 272 L1084 -84 L1012 -12 L1145 121 L707 121 L563 -187 L471 -144 Z M194 323 L144 273 L144 272 L194 222 L642 222 L689 323 L194 323 Z M1247 222 L1297 272 L1297 273 L1247 323 L801 323 L754 222 L1247 222 Z " />
<glyph glyph-name="dblarrowleftstroke" unicode="&#x21cd;" horiz-adv-x="1122" d="M520 -144 L644 121 L296 121 L429 -12 L357 -84 L1 272 L1 273 L357 629 L429 557 L296 424 L785 424 L929 732 L1021 689 L897 424 L1071 424 L1071 323 L850 323 L803 222 L1071 222 L1071 121 L756 121 L612 -187 L520 -144 Z M194 323 L144 273 L144 272 L194 222 L691 222 L738 323 L194 323 Z " />
<glyph glyph-name="dblarrowrightstroke" unicode="&#x21cf;" horiz-adv-x="1122" d="M101 -144 L225 121 L51 121 L51 222 L272 222 L319 323 L51 323 L51 424 L366 424 L510 732 L602 689 L478 424 L826 424 L693 557 L765 629 L1121 273 L1121 272 L765 -84 L693 -12 L826 121 L337 121 L193 -187 L101 -144 Z M928 222 L978 272 L978 273 L928 323 L431 323 L384 222 L928 222 Z " />
<glyph glyph-name="currency" unicode="&#xa4;" horiz-adv-x="691" d="M641 90 L528 -23 L431 74 Q412 67 390 63 Q368 59 345 59 Q322 59 300.5 62.5 Q279 66 260 74 L163 -23 L50 90 L147 187 Q140 206 136 227.5 Q132 249 132 272 Q132 295 136 316.5 Q140 338 147 357 L50 454 L164 567 L260 471 Q279 478 300.5 481.5 Q322 485 345 485 Q368 485 389.5 481 Q411 477 430 470 L527 567 L641 454 L543 356 Q550 337 554 316 Q558 295 558 272 Q558 249 554 228 Q550 207 543 188 L641 90 Z M406 272 Q406 300 389.5 316.5 Q373 333 345 333 Q317 333 300.5 316.5 Q284 300 284 272 Q284 244 300.5 227.5 Q317 211 345 211 Q373 211 389.5 227.5 Q406 244 406 272 Z " />
<glyph glyph-name="underscore" unicode="&#x5f;" horiz-adv-x="570" d="M575 -64 L575 -224 L-5 -224 L-5 -64 L575 -64 Z " />
<glyph glyph-name="hyphen" unicode="&#x2d;" horiz-adv-x="480" d="M440 353 L440 193 L40 193 L40 353 L440 353 Z " />
<glyph glyph-name="hyphensoft" unicode="&#xad;" horiz-adv-x="480" d="M440 353 L440 193 L40 193 L40 353 L440 353 Z " />
<glyph glyph-name="endash" unicode="&#x2013;" horiz-adv-x="700" d="M640 353 L640 193 L60 193 L60 353 L640 353 Z " />
<glyph glyph-name="emdash" unicode="&#x2014;" horiz-adv-x="870" d="M810 353 L810 193 L60 193 L60 353 L810 353 Z " />
<glyph glyph-name="parenleft" unicode="&#x28;" horiz-adv-x="393" d="M260 284 Q260 147 291.5 33.5 Q323 -80 383 -160 L238 -255 Q152 -154 106 -14.5 Q60 125 60 283 Q60 440 106 579.5 Q152 719 238 823 L383 728 Q323 649 291.5 535.5 Q260 422 260 284 Z " />
<glyph glyph-name="bracketleft" unicode="&#x5b;" horiz-adv-x="379" d="M369 635 L260 635 L260 -68 L369 -68 L369 -224 L60 -224 L60 791 L369 791 L369 635 Z " />
<glyph glyph-name="braceleft" unicode="&#x7b;" horiz-adv-x="383" d="M104 51 Q119 87 123.5 104.5 Q128 122 128 136 Q128 162 110 185 Q92 208 60 217 L60 349 Q92 358 110 381 Q128 404 128 430 Q128 444 123.5 461.5 Q119 479 104 515 Q87 554 82 573.5 Q77 593 77 610 Q77 713 154.5 761.5 Q232 810 373 795 L373 649 Q320 654 299.5 640.5 Q279 627 279 591 Q279 574 283.5 554.5 Q288 535 303 497 Q318 458 322.5 438 Q327 418 327 400 Q327 363 310.5 338 Q294 313 250 283 Q294 253 310.5 228 Q327 203 327 166 Q327 148 322.5 128 Q318 108 303 69 Q288 31 283.5 11.5 Q279 -8 279 -25 Q279 -61 299.5 -74.5 Q320 -88 373 -83 L373 -229 Q232 -244 154.5 -195.5 Q77 -147 77 -44 Q77 -27 82 -7 Q87 13 104 51 Z " />
<glyph glyph-name="parenright" unicode="&#x29;" horiz-adv-x="393" d="M133 283 Q133 420 101.5 533.5 Q70 647 10 727 L155 822 Q241 721 287 581.5 Q333 442 333 284 Q333 127 287 -12.5 Q241 -152 155 -256 L10 -161 Q70 -82 101.5 31.5 Q133 145 133 283 Z " />
<glyph glyph-name="bracketright" unicode="&#x5d;" horiz-adv-x="379" d="M119 635 L10 635 L10 791 L319 791 L319 -224 L10 -224 L10 -68 L119 -68 L119 635 Z " />
<glyph glyph-name="braceright" unicode="&#x7d;" horiz-adv-x="383" d="M279 516 Q264 480 259.5 462.5 Q255 445 255 431 Q255 405 273 382 Q291 359 323 350 L323 218 Q291 209 273 186 Q255 163 255 137 Q255 123 259.5 105.5 Q264 88 279 52 Q296 13 301 -6.5 Q306 -26 306 -43 Q306 -146 228.5 -194.5 Q151 -243 10 -228 L10 -82 Q63 -87 83.5 -73.5 Q104 -60 104 -24 Q104 -7 99.5 12.5 Q95 32 80 70 Q65 109 60.5 129 Q56 149 56 167 Q56 204 72.5 229 Q89 254 133 284 Q89 314 72.5 339 Q56 364 56 401 Q56 419 60.5 439 Q65 459 80 498 Q95 536 99.5 555.5 Q104 575 104 592 Q104 628 83.5 641.5 Q63 655 10 650 L10 796 Q151 811 228.5 762.5 Q306 714 306 611 Q306 594 301 574 Q296 554 279 516 Z " />
<glyph glyph-name="guilsinglleft" unicode="&#x2039;" horiz-adv-x="414" d="M384 129 L285 0 L30 204 L30 341 L285 545 L384 416 L216 273 L384 129 Z " />
<glyph glyph-name="guillemotleft" unicode="&#xab;" horiz-adv-x="768" d="M384 129 L285 0 L30 204 L30 341 L285 545 L384 416 L216 273 L384 129 Z M738 129 L639 0 L384 204 L384 341 L639 545 L738 416 L570 273 L738 129 Z " />
<glyph glyph-name="guilsinglright" unicode="&#x203a;" horiz-adv-x="414" d="M30 416 L129 545 L384 341 L384 204 L129 0 L30 129 L198 272 L30 416 Z " />
<glyph glyph-name="guillemotright" unicode="&#xbb;" horiz-adv-x="763" d="M379 416 L478 545 L733 341 L733 204 L478 0 L379 129 L547 272 L379 416 Z M25 416 L124 545 L379 341 L379 204 L124 0 L25 129 L193 272 L25 416 Z " />
<glyph glyph-name="quoteleft" unicode="&#x2018;" horiz-adv-x="292" d="M130 444 L20 754 L201 786 L262 481 L130 444 Z " />
<glyph glyph-name="quotedblleft" unicode="&#x201c;" horiz-adv-x="534" d="M135 444 L25 754 L206 786 L267 481 L135 444 Z M377 444 L267 754 L448 786 L509 481 L377 444 Z " />
<glyph glyph-name="quoteright" unicode="&#x2019;" horiz-adv-x="292" d="M272 754 L162 444 L30 481 L91 786 L272 754 Z " />
<glyph glyph-name="quotesingle" unicode="&#x27;" horiz-adv-x="292" d="M272 754 L162 444 L30 481 L91 786 L272 754 Z " />
<glyph glyph-name="quotedbl" unicode="&#x22;" horiz-adv-x="523" d="M272 754 L162 444 L30 481 L91 786 L272 754 Z M503 754 L393 444 L261 481 L322 786 L503 754 Z " />
<glyph glyph-name="quotedblright" unicode="&#x201d;" horiz-adv-x="534" d="M272 754 L162 444 L30 481 L91 786 L272 754 Z M514 754 L404 444 L272 481 L333 786 L514 754 Z " />
<glyph glyph-name="quotesinglbase" unicode="&#x201a;" horiz-adv-x="308" d="M293 76 L122 -205 L0 -141 L122 145 L293 76 Z " />
<glyph glyph-name="quotedblbase" unicode="&#x201e;" horiz-adv-x="601" d="M293 76 L122 -205 L0 -141 L122 145 L293 76 Z M586 76 L415 -205 L293 -141 L415 145 L586 76 Z " />
<glyph glyph-name="period" unicode="&#x2e;" horiz-adv-x="324" d="M284 104 Q284 54 249 20.5 Q214 -13 163 -13 Q110 -13 75 20.5 Q40 54 40 104 Q40 154 75.5 187 Q111 220 163 220 Q214 220 249 187 Q284 154 284 104 Z " />
<glyph glyph-name="ellipsis" unicode="&#x2026;" horiz-adv-x="976" d="M936 104 Q936 54 901 20.5 Q866 -13 815 -13 Q762 -13 727 20.5 Q692 54 692 104 Q692 154 727.5 187 Q763 220 815 220 Q866 220 901 187 Q936 154 936 104 Z M610 104 Q610 54 575 20.5 Q540 -13 489 -13 Q436 -13 401 20.5 Q366 54 366 104 Q366 154 401.5 187 Q437 220 489 220 Q540 220 575 187 Q610 154 610 104 Z M284 104 Q284 54 249 20.5 Q214 -13 163 -13 Q110 -13 75 20.5 Q40 54 40 104 Q40 154 75.5 187 Q111 220 163 220 Q214 220 249 187 Q284 154 284 104 Z " />
<glyph glyph-name="middot" unicode="&#xb7;" horiz-adv-x="324" d="M284 309 Q284 259 249 225.5 Q214 192 163 192 Q110 192 75 225.5 Q40 259 40 309 Q40 359 75.5 392 Q111 425 163 425 Q214 425 249 392 Q284 359 284 309 Z " />
<glyph glyph-name="bullet" unicode="&#x2022;" horiz-adv-x="426" d="M213 446 Q285 446 335.5 395.5 Q386 345 386 273 Q386 201 335.5 150.5 Q285 100 213 100 Q141 100 90.5 150.5 Q40 201 40 273 Q40 345 90.5 395.5 Q141 446 213 446 Z " />
<glyph glyph-name="comma" unicode="&#x2c;" horiz-adv-x="308" d="M293 76 L122 -205 L0 -141 L122 145 L293 76 Z " />
<glyph glyph-name="colon" unicode="&#x3a;" horiz-adv-x="324" d="M284 440 Q284 390 249 356.5 Q214 323 163 323 Q110 323 75 356.5 Q40 390 40 440 Q40 490 75.5 523 Q111 556 163 556 Q214 556 249 523 Q284 490 284 440 Z M284 104 Q284 54 249 20.5 Q214 -13 163 -13 Q110 -13 75 20.5 Q40 54 40 104 Q40 154 75.5 187 Q111 220 163 220 Q214 220 249 187 Q284 154 284 104 Z " />
<glyph glyph-name="semicolon" unicode="&#x3b;" horiz-adv-x="343" d="M303 467 Q303 417 268 383.5 Q233 350 182 350 Q129 350 94 383.5 Q59 417 59 467 Q59 517 94.5 550 Q130 583 182 583 Q233 583 268 550 Q303 517 303 467 Z M283 76 L112 -205 L-10 -141 L112 145 L283 76 Z " />
<glyph glyph-name="question" unicode="&#x3f;" horiz-adv-x="537" d="M497 591 Q497 556 480 522.5 Q463 489 407 433 Q353 378 336 345.5 Q319 313 319 279 L136 279 Q135 325 156.5 369 Q178 413 243 477 Q278 513 288 528 Q298 543 298 556 Q298 584 277 597 Q256 610 213 610 Q170 610 127.5 596.5 Q85 583 40 555 L40 728 Q82 749 138.5 762 Q195 775 246 775 Q370 775 433.5 728.5 Q497 682 497 591 Z M357 104 Q357 54 322 20.5 Q287 -13 236 -13 Q183 -13 148 20.5 Q113 54 113 104 Q113 154 148.5 187 Q184 220 236 220 Q287 220 322 187 Q357 154 357 104 Z " />
<glyph glyph-name="questiondown" unicode="&#xbf;" horiz-adv-x="537" d="M180 437 Q180 487 215 520.5 Q250 554 301 554 Q354 554 389 520.5 Q424 487 424 437 Q424 387 388.5 354 Q353 321 301 321 Q250 321 215 354 Q180 387 180 437 Z M40 -50 Q40 -15 57 18.5 Q74 52 130 108 Q184 163 201 195.5 Q218 228 218 262 L401 262 Q402 216 380.5 172 Q359 128 294 64 Q259 28 249 13 Q239 -2 239 -15 Q239 -43 260 -56 Q281 -69 324 -69 Q367 -69 409.5 -55.5 Q452 -42 497 -14 L497 -187 Q455 -208 398.5 -221 Q342 -234 291 -234 Q167 -234 103.5 -187.5 Q40 -141 40 -50 Z " />
<glyph glyph-name="exclam" unicode="&#x21;" horiz-adv-x="324" d="M61 474 Q57 590 55.5 650.5 Q54 711 54 763 L265 763 Q265 716 264 661 Q263 606 259 500 Q256 403 255 358.5 Q254 314 254 279 L66 279 Q66 310 65 349.5 Q64 389 61 474 Z M289 104 Q289 54 254 20.5 Q219 -13 168 -13 Q115 -13 80 20.5 Q45 54 45 104 Q45 154 80.5 187 Q116 220 168 220 Q219 220 254 187 Q289 154 289 104 Z " />
<glyph glyph-name="exclamdown" unicode="&#xa1;" horiz-adv-x="324" d="M40 435 Q40 485 75 518.5 Q110 552 161 552 Q214 552 249 518.5 Q284 485 284 435 Q284 385 248.5 352 Q213 319 161 319 Q110 319 75 352 Q40 385 40 435 Z M268 65 Q272 -51 273.5 -111.5 Q275 -172 275 -224 L64 -224 Q64 -177 65 -122 Q66 -67 70 39 Q73 136 74 180.5 Q75 225 75 260 L263 260 Q263 229 264 189.5 Q265 150 268 65 Z " />
<glyph glyph-name="slash" unicode="&#x2f;" horiz-adv-x="529" d="M319 870 L519 870 L210 -78 L10 -78 L319 870 Z " />
<glyph glyph-name="backslash" unicode="&#x5c;" horiz-adv-x="529" d="M10 870 L210 870 L519 -78 L319 -78 L10 870 Z " />
<glyph glyph-name="bar" unicode="&#x7c;" horiz-adv-x="360" d="M80 -224 L80 791 L280 791 L280 -224 L80 -224 Z " />
<glyph glyph-name="brokenbar" unicode="&#xa6;" horiz-adv-x="360" d="M80 390 L80 791 L280 791 L280 390 L80 390 Z M80 -224 L80 181 L280 181 L280 -224 L80 -224 Z " />
<glyph glyph-name="copyright" unicode="&#xa9;" horiz-adv-x="838" d="M419 773 Q584 773 691 662 Q798 551 798 381 Q798 211 691 100.5 Q584 -10 419 -10 Q254 -10 147 100.5 Q40 211 40 381 Q40 551 147 662 Q254 773 419 773 Z M419 676 Q296 676 216 592.5 Q136 509 136 381 Q136 253 216 169.5 Q296 86 419 86 Q542 86 622 169.5 Q702 253 702 381 Q702 509 622 592.5 Q542 676 419 676 Z M547 188 Q515 175 484 169 Q453 163 422 163 Q327 163 271 224 Q215 285 215 384 Q215 483 269 539 Q323 595 422 595 Q459 595 488 589 Q517 583 545 570 L545 437 Q526 447 503 452.5 Q480 458 453 458 Q415 458 395.5 439 Q376 420 376 384 Q376 344 395 324.5 Q414 305 453 305 Q481 305 504 310.5 Q527 316 547 327 L547 188 Z " />
<glyph glyph-name="soundcopyright" unicode="&#x2117;" horiz-adv-x="858" d="M429 773 Q594 773 701 662 Q808 551 808 381 Q808 211 701 100.5 Q594 -10 429 -10 Q264 -10 157 100.5 Q50 211 50 381 Q50 551 157 662 Q264 773 429 773 Z M429 676 Q306 676 226 592.5 Q146 509 146 381 Q146 253 226 169.5 Q306 86 429 86 Q552 86 632 169.5 Q712 253 712 381 Q712 509 632 592.5 Q552 676 429 676 Z M431 272 L431 158 L270 158 L270 591 L457 591 Q549 591 601 551.5 Q653 512 653 439 Q653 359 599.5 315.5 Q546 272 450 272 L431 272 Z M461 472 L431 472 L431 392 L461 392 Q475 392 485.5 403.5 Q496 415 496 432 Q496 451 486.5 461.5 Q477 472 461 472 Z " />
<glyph glyph-name="registered" unicode="&#xae;" horiz-adv-x="721" d="M360 826 Q500 826 590.5 733 Q681 640 681 496 Q681 353 590.5 260 Q500 167 360 167 Q221 167 130.5 260 Q40 353 40 496 Q40 640 130.5 733 Q221 826 360 826 Z M360 733 Q262 733 197.5 666 Q133 599 133 496 Q133 394 197.5 327 Q262 260 360 260 Q459 260 523.5 327 Q588 394 588 496 Q588 599 523.5 666 Q459 733 360 733 Z M346 442 L346 349 L241 349 L241 653 L363 653 Q428 653 461.5 627.5 Q495 602 495 553 Q495 527 485 505 Q475 483 457 470 L511 349 L394 349 L362 442 L346 442 Z M363 574 L346 574 L346 522 L358 522 Q374 522 381.5 528.5 Q389 535 389 549 Q389 561 382 567.5 Q375 574 363 574 Z " />
<glyph glyph-name="trademark" unicode="&#x2122;" horiz-adv-x="1179" d="M311 619 L311 273 L129 273 L129 619 L0 619 L0 763 L440 763 L440 619 L311 619 Z M647 342 L653 273 L468 273 L510 763 L689 763 L761 561 Q773 528 780.5 504.5 Q788 481 790 465 L794 465 Q795 479 801 502 Q807 525 821 562 L892 763 L1069 763 L1114 273 L928 273 L931 342 Q933 378 935 411.5 Q937 445 939 476 L934 476 Q923 446 912 412.5 Q901 379 889 340 L868 273 L712 273 L690 342 Q678 379 666.5 412.5 Q655 446 645 476 L640 476 Q641 444 643 410.5 Q645 377 647 342 Z " />
<glyph glyph-name="paragraph" unicode="&#xb6;" horiz-adv-x="854" d="M40 518 Q40 627 108.5 695 Q177 763 284 763 L484 763 L484 -78 L284 -78 L284 273 Q177 273 108.5 341 Q40 409 40 518 Z M574 763 L774 763 L774 -78 L574 -78 L574 763 Z " />
<glyph glyph-name="section" unicode="&#xa7;" horiz-adv-x="724" d="M634 9 Q634 -111 553 -173 Q472 -235 315 -235 Q252 -235 198 -226 Q144 -217 90 -198 L90 -12 Q139 -40 198 -55 Q257 -70 318 -70 Q366 -70 390 -55 Q414 -40 414 -10 Q414 10 392 26 Q370 42 292 69 Q223 93 188.5 109.5 Q154 126 129 145 Q89 175 69.5 213.5 Q50 252 50 300 Q50 342 67.5 377.5 Q85 413 121 443 Q105 465 97.5 490.5 Q90 516 90 545 Q90 653 169 713 Q248 773 390 773 Q448 773 504 761.5 Q560 750 601 729 L601 533 Q562 566 504 585.5 Q446 605 387 605 Q345 605 325 593.5 Q305 582 305 558 Q305 536 329 518.5 Q353 501 436 471 Q504 447 536.5 431 Q569 415 593 399 Q634 370 654 334 Q674 298 674 254 Q674 212 657 176 Q640 140 601 104 Q618 83 626 59.5 Q634 36 634 9 Z M390 218 Q407 212 422 207 Q437 202 450 197 Q457 206 460.5 218 Q464 230 464 245 Q464 264 441.5 280 Q419 296 339 322 Q318 329 301 335 Q284 341 269 346 Q262 340 258.5 329 Q255 318 255 303 Q255 282 279.5 264.5 Q304 247 390 218 Z " />
<glyph glyph-name="numero" unicode="&#x2116;" horiz-adv-x="1247" d="M1187 617 Q1187 533 1135.5 484.5 Q1084 436 994 436 Q904 436 853 484.5 Q802 533 802 617 Q802 701 853 750 Q904 799 994 799 Q1084 799 1135.5 750 Q1187 701 1187 617 Z M288 295 L288 0 L80 0 L80 763 L280 763 L459 472 Q479 441 495.5 410 Q512 379 525 349 L529 350 Q527 381 525.5 411 Q524 441 524 471 L524 763 L732 763 L732 0 L532 0 L353 294 Q334 326 317 357 Q300 388 286 417 L282 416 Q285 386 286.5 355.5 Q288 325 288 295 Z M1044 617 Q1044 659 1031.5 679.5 Q1019 700 994 700 Q969 700 957 680 Q945 660 945 617 Q945 574 957 554 Q969 534 994 534 Q1019 534 1031.5 554.5 Q1044 575 1044 617 Z M1174 392 L1174 274 L814 274 L814 392 L1174 392 Z " />
<glyph glyph-name="at" unicode="&#x40;" horiz-adv-x="849" d="M453 -82 Q502 -82 555 -72.5 Q608 -63 636 -48 L636 -200 Q609 -215 561 -224 Q513 -233 456 -233 Q258 -233 149 -127.5 Q40 -22 40 164 Q40 344 149.5 450 Q259 556 450 556 Q613 556 691 486 Q769 416 769 273 L769 0 L614 0 L594 52 L590 53 Q555 18 521.5 3.5 Q488 -11 446 -11 Q367 -11 322.5 35 Q278 81 278 159 Q278 246 341 288 Q404 330 535 330 L570 330 Q571 333 571 336.5 Q571 340 571 347 Q571 372 534.5 387.5 Q498 403 441 403 Q331 403 267.5 338.5 Q204 274 204 165 Q204 50 269.5 -16 Q335 -82 453 -82 Z M548 216 Q507 216 488.5 205.5 Q470 195 470 170 Q470 149 481.5 138.5 Q493 128 515 128 Q538 128 559 138 Q580 148 588 163 L588 216 L548 216 Z " />
<glyph glyph-name="estimated" unicode="&#x212e;" horiz-adv-x="771" d="M667 203 L673 203 L673 126 Q628 61 557 25.5 Q486 -10 402 -10 Q256 -10 158 85 Q60 180 60 326 Q60 466 151.5 558 Q243 650 386 650 Q529 650 620 555 Q711 460 711 316 Q711 305 710.5 295 Q710 285 708 274 L186 274 L186 141 Q224 95 281 70 Q338 45 403 45 Q485 45 558.5 89.5 Q632 134 667 203 Z M577 519 Q540 557 491.5 576.5 Q443 596 386 596 Q325 596 273.5 573.5 Q222 551 186 509 L186 326 L577 326 L577 519 Z " />
<glyph glyph-name="dagger" unicode="&#x2020;" horiz-adv-x="560" d="M530 430 L360 443 L380 0 L180 0 L199 443 L30 430 L30 612 L195 603 L180 763 L380 763 L364 603 L530 612 L530 430 Z " />
<glyph glyph-name="daggerdbl" unicode="&#x2021;" horiz-adv-x="560" d="M364 160 L380 0 L180 0 L195 160 L30 147 L30 329 L191 320 L180 392 L189 443 L30 430 L30 612 L195 603 L180 763 L380 763 L364 603 L530 612 L530 430 L370 443 L379 392 L368 320 L530 329 L530 147 L364 160 Z " />
<glyph glyph-name="asterisk" unicode="&#x2a;" horiz-adv-x="594" d="M433 506 L512 409 L365 302 L298 407 L229 302 L82 409 L161 505 L40 538 L96 711 L213 666 L206 791 L388 791 L381 666 L498 711 L554 538 L433 506 Z " />
<glyph glyph-name="asterism" unicode="&#x2042;" horiz-adv-x="1224" d="M743 506 L822 409 L675 302 L608 407 L539 302 L392 409 L471 505 L350 538 L406 711 L523 666 L516 791 L698 791 L691 666 L808 711 L864 538 L743 506 Z M433 -20 L512 -117 L365 -224 L298 -119 L229 -224 L82 -117 L161 -21 L40 12 L96 185 L213 140 L206 265 L388 265 L381 140 L498 185 L554 12 L433 -20 Z M1063 -20 L1142 -117 L995 -224 L928 -119 L859 -224 L712 -117 L791 -21 L670 12 L726 185 L843 140 L836 265 L1018 265 L1011 140 L1128 185 L1184 12 L1063 -20 Z " />
<glyph glyph-name="degree" unicode="&#xb0;" horiz-adv-x="482" d="M50 583 Q50 668 103 721 Q156 774 241 774 Q325 774 378.5 720.5 Q432 667 432 583 Q432 499 378.5 445.5 Q325 392 241 392 Q156 392 103 445 Q50 498 50 583 Z M330 583 Q330 624 305.5 649 Q281 674 241 674 Q201 674 176.5 649 Q152 624 152 583 Q152 543 176.5 518 Q201 493 241 493 Q281 493 305.5 518 Q330 543 330 583 Z " />
<glyph glyph-name="largecircle" unicode="&#x25ef;" horiz-adv-x="646" d="M40 273 Q40 399 118.5 477.5 Q197 556 323 556 Q447 556 526.5 477 Q606 398 606 273 Q606 148 526.5 69 Q447 -10 323 -10 Q197 -10 118.5 68.5 Q40 147 40 273 Z M412 273 Q412 314 387.5 339 Q363 364 323 364 Q283 364 258.5 339 Q234 314 234 273 Q234 233 258.5 208 Q283 183 323 183 Q363 183 387.5 208 Q412 233 412 273 Z " />
<glyph glyph-name="A.small" unicode="&#xe000;" horiz-adv-x="636" d="M249 81 L230 0 L20 0 L215 545 L420 545 L616 0 L406 0 L387 81 L249 81 Z M315 389 Q315 376 307.5 338.5 Q300 301 291 273 L277 228 L359 228 L346 272 Q337 301 329.5 339 Q322 377 322 389 L315 389 Z " />
<glyph glyph-name="B.small" unicode="&#xe00d;" horiz-adv-x="610" d="M353 545 Q440 545 487.5 508 Q535 471 535 404 Q535 359 510 327.5 Q485 296 438 283 L438 282 Q495 273 527.5 238 Q560 203 560 152 Q560 80 499 40 Q438 0 323 0 L80 0 L80 545 L353 545 Z M274 340 L309 340 Q327 340 335.5 347.5 Q344 355 344 371 Q344 387 335 394.5 Q326 402 307 402 L274 402 L274 340 Z M274 143 L331 143 Q347 143 357 151.5 Q367 160 367 174 Q367 190 357.5 198.5 Q348 207 329 207 L274 207 L274 143 Z " />
<glyph glyph-name="C.small" unicode="&#xe00e;" horiz-adv-x="544" d="M254 273 Q254 216 275.5 191.5 Q297 167 350 167 Q389 167 430 179.5 Q471 192 504 213 L504 35 Q465 14 416.5 3.5 Q368 -7 311 -7 Q188 -7 119 68 Q50 143 50 272 Q50 403 124.5 477.5 Q199 552 335 552 Q383 552 422.5 545 Q462 538 500 522 L500 337 Q468 359 435 369 Q402 379 355 379 Q298 379 276 356 Q254 333 254 273 Z " />
<glyph glyph-name="D.small" unicode="&#xe014;" horiz-adv-x="641" d="M601 272 Q601 144 519.5 72 Q438 0 288 0 L80 0 L80 545 L289 545 Q442 545 521.5 475 Q601 405 601 272 Z M284 160 L288 160 Q343 160 369.5 187.5 Q396 215 396 273 Q396 331 369 357.5 Q342 384 284 385 L284 160 Z " />
<glyph glyph-name="E.small" unicode="&#xe017;" horiz-adv-x="557" d="M496 147 L496 0 L80 0 L80 545 L487 545 L487 398 L284 398 L284 347 L470 347 L470 200 L284 200 L284 147 L496 147 Z " />
<glyph glyph-name="F.small" unicode="&#xe027;" horiz-adv-x="538" d="M80 545 L488 545 L488 398 L284 398 L284 347 L471 347 L471 200 L284 200 L284 0 L80 0 L80 545 Z " />
<glyph glyph-name="G.small" unicode="&#xe028;" horiz-adv-x="642" d="M562 42 Q484 12 438.5 2.5 Q393 -7 340 -7 Q202 -7 121 67 Q40 141 40 272 Q40 405 126.5 478.5 Q213 552 367 552 Q425 552 470 548 Q515 544 561 534 L561 355 Q517 375 474 384.5 Q431 394 384 394 Q309 394 277 366 Q245 338 245 273 Q245 207 268 179 Q291 151 346 151 L357 151 L357 297 L562 297 L562 42 Z " />
<glyph glyph-name="H.small" unicode="&#xe02d;" horiz-adv-x="678" d="M284 193 L284 0 L80 0 L80 545 L284 545 L284 353 L394 353 L394 545 L598 545 L598 0 L394 0 L394 193 L284 193 Z " />
<glyph glyph-name="I.small" unicode="&#xe030;" horiz-adv-x="490" d="M430 147 L430 0 L60 0 L60 147 L143 147 L143 398 L60 398 L60 545 L430 545 L430 398 L348 398 L348 147 L430 147 Z " />
<glyph glyph-name="J.small" unicode="&#xe03b;" horiz-adv-x="517" d="M447 217 Q447 108 389 50.5 Q331 -7 221 -7 Q174 -7 123.5 1 Q73 9 50 21 L50 207 Q83 190 116 180.5 Q149 171 174 171 Q179 171 196.5 170 Q214 169 221 171 Q232 174 237 183 Q242 192 242 209 L242 398 L67 398 L67 545 L447 545 L447 217 Z " />
<glyph glyph-name="K.small" unicode="&#xe03d;" horiz-adv-x="626" d="M285 181 L285 0 L80 0 L80 545 L285 545 L285 360 Q309 360 318 368.5 Q327 377 337 402 Q341 413 347 430 Q353 447 362 473 Q366 486 371 502.5 Q376 519 384 545 L619 545 L527 367 Q508 330 492.5 310.5 Q477 291 461 283 L461 279 Q475 270 490 249 Q505 228 528 184 L626 0 L391 0 Q374 43 365.5 65.5 Q357 88 351 103 Q331 151 320 166 Q309 181 285 181 Z " />
<glyph glyph-name="L.small" unicode="&#xe03f;" horiz-adv-x="526" d="M496 160 L496 0 L80 0 L80 545 L284 545 L284 160 L496 160 Z " />
<glyph glyph-name="M.small" unicode="&#xe045;" horiz-adv-x="848" d="M264 77 L270 0 L65 0 L111 545 L310 545 L391 320 Q404 284 412 257.5 Q420 231 423 214 L427 214 Q428 229 435 254.5 Q442 280 457 321 L536 545 L733 545 L783 0 L576 0 L580 77 Q582 117 584 154 Q586 191 588 226 L583 226 Q571 193 558.5 155.5 Q546 118 533 75 L510 0 L336 0 L311 77 Q298 118 285.5 155.5 Q273 193 261 226 L256 226 Q257 190 259 153 Q261 116 264 77 Z " />
<glyph glyph-name="N.small" unicode="&#xe046;" horiz-adv-x="678" d="M273 154 L273 0 L80 0 L80 545 L263 545 L353 399 Q371 371 384 348 Q397 325 406 307 L409 308 Q408 326 407 348 Q406 370 406 395 L406 545 L598 545 L598 0 L415 0 L325 150 Q310 176 296.5 199 Q283 222 271 242 L268 240 Q271 219 272 197.5 Q273 176 273 154 Z " />
<glyph glyph-name="O.small" unicode="&#xe04b;" horiz-adv-x="667" d="M627 272 Q627 142 549.5 67.5 Q472 -7 333 -7 Q194 -7 117 67 Q40 141 40 272 Q40 404 117 478 Q194 552 333 552 Q472 552 549.5 477.5 Q627 403 627 272 Z M423 272 Q423 333 401 362.5 Q379 392 333 392 Q287 392 265.5 363 Q244 334 244 272 Q244 210 265.5 181.5 Q287 153 333 153 Q379 153 401 182 Q423 211 423 272 Z " />
<glyph glyph-name="P.small" unicode="&#xe057;" horiz-adv-x="593" d="M283 144 L283 0 L80 0 L80 545 L316 545 Q432 545 497.5 495 Q563 445 563 353 Q563 253 495.5 198.5 Q428 144 307 144 L283 144 Z M321 395 L283 395 L283 294 L321 294 Q338 294 351.5 308.5 Q365 323 365 345 Q365 369 353 382 Q341 395 321 395 Z " />
<glyph glyph-name="Q.small" unicode="&#xe058;" horiz-adv-x="659" d="M650 26 L534 -80 L462 14 Q434 3 401.5 -2 Q369 -7 333 -7 Q194 -7 117 67 Q40 141 40 272 Q40 404 117 478 Q194 552 333 552 Q472 552 549.5 477.5 Q627 403 627 272 Q627 217 613 171.5 Q599 126 572 92 L650 26 Z M423 272 Q423 333 401 362.5 Q379 392 333 392 Q287 392 265.5 363 Q244 334 244 272 Q244 210 265.5 181.5 Q287 153 333 153 Q379 153 401 182 Q423 211 423 272 Z " />
<glyph glyph-name="R.small" unicode="&#xe059;" horiz-adv-x="613" d="M283 157 L283 0 L80 0 L80 545 L313 545 Q436 545 499.5 499 Q563 453 563 362 Q563 311 542 270 Q521 229 482 207 L593 0 L368 0 L318 159 Q310 158 301.5 157.5 Q293 157 287 157 L283 157 Z M318 395 L283 395 L283 306 L318 306 Q339 306 352 318 Q365 330 365 350 Q365 371 352.5 383 Q340 395 318 395 Z " />
<glyph glyph-name="S.small" unicode="&#xe05d;" horiz-adv-x="549" d="M499 180 Q499 86 433.5 39.5 Q368 -7 237 -7 Q182 -7 138 -1 Q94 5 51 18 L51 187 Q89 166 133.5 155.5 Q178 145 239 145 Q267 145 280 149 Q293 153 293 163 Q293 171 282.5 177.5 Q272 184 233 194 Q179 209 151.5 222 Q124 235 105 251 Q77 274 63.5 305 Q50 336 50 376 Q50 461 114.5 506.5 Q179 552 300 552 Q348 552 395 542.5 Q442 533 476 516 L476 338 Q442 366 393.5 382 Q345 398 296 398 Q273 398 261.5 395.5 Q250 393 250 388 Q250 377 263.5 367.5 Q277 358 326 342 Q428 307 463.5 270 Q499 233 499 180 Z " />
<glyph glyph-name="T.small" unicode="&#xe065;" horiz-adv-x="489" d="M346 385 L346 0 L143 0 L143 385 L0 385 L0 545 L489 545 L489 385 L346 385 Z " />
<glyph glyph-name="U.small" unicode="&#xe06a;" horiz-adv-x="678" d="M598 268 Q598 110 543.5 51.5 Q489 -7 339 -7 Q192 -7 136 53 Q80 113 80 268 L80 545 L284 545 L284 255 Q284 204 297.5 185.5 Q311 167 340 167 Q368 167 381 185.5 Q394 204 394 255 L394 545 L598 545 L598 268 Z " />
<glyph glyph-name="V.small" unicode="&#xe075;" horiz-adv-x="636" d="M616 545 L418 0 L218 0 L20 545 L230 545 L317 213 L321 213 L406 545 L616 545 Z " />
<glyph glyph-name="W.small" unicode="&#xe076;" horiz-adv-x="856" d="M425 261 L345 0 L152 0 L40 545 L245 545 L257 425 Q260 401 261.5 359.5 Q263 318 263 276 L268 276 Q282 334 291.5 371.5 Q301 409 306 425 L344 545 L513 545 L551 425 Q566 376 575.5 343 Q585 310 593 276 L598 276 Q598 336 599 373 Q600 410 601 424 L613 545 L816 545 L707 0 L513 0 L429 261 L425 261 Z " />
<glyph glyph-name="X.small" unicode="&#xe07b;" horiz-adv-x="618" d="M302 121 L228 0 L10 0 L198 294 L20 545 L239 545 L314 434 L318 434 L388 545 L606 545 L416 268 L608 0 L390 0 L304 121 L302 121 Z " />
<glyph glyph-name="Y.small" unicode="&#xe07c;" horiz-adv-x="589" d="M397 164 L397 0 L194 0 L194 164 L-10 545 L218 545 L265 426 Q272 408 277.5 392 Q283 376 292 341 L298 341 Q306 372 311.5 389 Q317 406 325 426 L370 545 L599 545 L397 164 Z " />
<glyph glyph-name="Z.small" unicode="&#xe081;" horiz-adv-x="539" d="M489 160 L489 0 L50 0 L50 141 L247 383 L246 385 L58 385 L58 545 L482 545 L482 391 L284 162 L285 160 L489 160 Z " />
<glyph glyph-name="acute" unicode="&#xb4;" horiz-adv-x="440" d="M383 803 L159 615 L65 707 L237 924 L383 803 Z " />
<glyph glyph-name="hungarumlaut" unicode="&#x2dd;" horiz-adv-x="582" d="M305 855 L134 618 L20 684 L134 937 L305 855 Z M562 797 L346 600 L249 688 L412 912 L562 797 Z " />
<glyph glyph-name="grave" unicode="&#x60;" horiz-adv-x="338" d="M156 924 L328 707 L234 615 L10 803 L156 924 Z " />
<glyph glyph-name="circumflex" unicode="&#x2c6;" horiz-adv-x="491" d="M246 733 L122 608 L30 698 L177 890 L312 890 L461 698 L367 608 L246 733 Z " />
<glyph glyph-name="dieresis" unicode="&#xa8;" horiz-adv-x="524" d="M137 874 Q180 874 209 845.5 Q238 817 238 774 Q238 732 209 703.5 Q180 675 137 675 Q93 675 64 703.5 Q35 732 35 774 Q35 817 64 845.5 Q93 874 137 874 Z M387 873 Q430 873 459.5 844.5 Q489 816 489 774 Q489 732 459.5 703.5 Q430 675 387 675 Q343 675 314 703.5 Q285 732 285 774 Q285 816 314 844.5 Q343 873 387 873 Z " />
<glyph glyph-name="overscore" unicode="&#xaf;" horiz-adv-x="422" d="M412 840 L412 708 L10 708 L10 840 L412 840 Z " />
<glyph glyph-name="breve" unicode="&#x2d8;" horiz-adv-x="466" d="M436 859 Q436 754 381.5 689.5 Q327 625 233 625 Q139 625 84.5 689.5 Q30 754 30 859 L156 859 Q158 815 178 789 Q198 763 233 763 Q268 763 288 789 Q308 815 310 859 L436 859 Z " />
<glyph glyph-name="dotaccent" unicode="&#x2d9;" horiz-adv-x="360" d="M300 744 Q300 694 265.5 660.5 Q231 627 181 627 Q129 627 94.5 660.5 Q60 694 60 744 Q60 794 94.5 827 Q129 860 181 860 Q232 860 266 827 Q300 794 300 744 Z " />
<glyph glyph-name="ring" unicode="&#x2da;" horiz-adv-x="308" d="M154 928 Q219 928 263.5 883.5 Q308 839 308 774 Q308 710 263.5 665 Q219 620 154 620 Q90 620 45 665 Q0 710 0 774 Q0 839 45 883.5 Q90 928 154 928 Z M154 823 Q132 823 118.5 810 Q105 797 105 774 Q105 752 118.5 738.5 Q132 725 154 725 Q176 725 189.5 738.5 Q203 752 203 774 Q203 796 189.5 809.5 Q176 823 154 823 Z " />
<glyph glyph-name="ring.cap" unicode="&#xe0ff;" horiz-adv-x="454" d="M227 1079 Q315 1079 370.5 1039.5 Q426 1000 426 940 Q426 880 370.5 840.5 Q315 801 227 801 Q139 801 83.5 840.5 Q28 880 28 940 Q28 1000 83.5 1039.5 Q139 1079 227 1079 Z M227 989 Q191 989 169.5 976 Q148 963 148 940 Q148 917 169.5 904 Q191 891 227 891 Q263 891 284.5 904 Q306 917 306 940 Q306 963 284.5 976 Q263 989 227 989 Z " />
<glyph glyph-name="tilde" unicode="&#x2dc;" horiz-adv-x="498" d="M469 879 Q470 763 431 700.5 Q392 638 323 643 Q299 645 278 655 Q257 665 227 692 Q210 708 202 713 Q194 718 187 718 Q173 719 165.5 700.5 Q158 682 158 645 L31 645 Q30 760 69.5 822 Q109 884 177 879 Q202 877 224 867 Q246 857 276 829 Q291 814 298.5 809.5 Q306 805 313 805 Q327 804 334.5 823 Q342 842 342 879 L469 879 Z " />
<glyph glyph-name="caron" unicode="&#x2c7;" horiz-adv-x="491" d="M245 771 L369 896 L461 806 L314 614 L179 614 L30 806 L124 896 L245 771 Z " />
<glyph glyph-name="cedilla" unicode="&#xb8;" horiz-adv-x="320" d="M300 -107 Q300 -164 256.5 -200 Q213 -236 147 -236 Q113 -236 80.5 -230.5 Q48 -225 21 -215 L21 -91 Q41 -100 55.5 -104 Q70 -108 84 -108 Q105 -108 116.5 -96 Q128 -84 128 -63 Q128 -44 118.5 -27 Q109 -10 82 13 L198 36 Q237 11 249 0.5 Q261 -10 270 -21 Q285 -40 292.5 -61 Q300 -82 300 -107 Z " />
<glyph glyph-name="ogonek" unicode="&#x2db;" horiz-adv-x="339" d="M30 -107 Q30 -73 44.5 -46 Q59 -19 88 0 Q111 15 139.5 26 Q168 37 202 45 L309 0 Q262 -9 232 -32 Q202 -55 202 -79 Q202 -93 212 -100.5 Q222 -108 242 -108 Q258 -108 274.5 -104 Q291 -100 309 -91 L309 -215 Q282 -225 249.5 -230.5 Q217 -236 183 -236 Q117 -236 73.5 -200 Q30 -164 30 -107 Z " />
<glyph glyph-name="commaaccent" unicode="&#xf6c3;" horiz-adv-x="500" d="M418 -164 L218 -321 L132 -236 L280 -50 L418 -164 Z " />
<glyph glyph-name="commainferior" unicode="&#xf6e1;" horiz-adv-x="285" d="M262 -172 L121 -388 L12 -331 L113 -113 L262 -172 Z " />
<glyph glyph-name="commasuperior" unicode="&#xf6e2;" horiz-adv-x="285" d="M262 259 L121 43 L12 100 L113 318 L262 259 Z " />
<glyph glyph-name="asciitilde" unicode="&#x7e;" horiz-adv-x="791" d="M425 356 Q460 335 475 329 Q490 323 502 323 Q528 323 539.5 344 Q551 365 551 418 L698 418 Q713 292 666 213 Q619 134 528 134 Q493 134 458 145.5 Q423 157 365 192 Q331 213 316 219 Q301 225 290 225 Q263 225 252 204.5 Q241 184 241 130 L94 130 Q80 256 126.5 335 Q173 414 263 414 Q298 414 333 402.5 Q368 391 425 356 Z " />
<glyph glyph-name="asciicircum" unicode="&#x5e;" horiz-adv-x="792" d="M702 290 L702 73 L396 294 L90 73 L90 290 L349 476 L443 476 L702 290 Z " />
<glyph glyph-name="checkbox" unicode="&#x2610;" horiz-adv-x="723" d="M80 545 L643 545 L643 0 L80 0 L80 545 Z M533 449 L190 449 L190 96 L533 96 L533 449 Z " />
<glyph glyph-name="checkboxchekced" unicode="&#x2611;" horiz-adv-x="723" d="M712 533 L643 456 L643 0 L80 0 L80 545 L619 545 L657 587 L712 533 Z M190 96 L533 96 L533 333 L370 151 L226 331 L284 381 L372 270 L533 449 L190 449 L190 96 Z " />
<glyph glyph-name="checkboxx" unicode="&#x2612;" horiz-adv-x="723" d="M80 545 L643 545 L643 0 L80 0 L80 545 Z M239 449 L361 327 L483 449 L239 449 Z M416 273 L533 155 L533 390 L416 273 Z M190 389 L190 156 L307 273 L190 389 Z M239 96 L483 96 L361 218 L239 96 Z " />
<glyph glyph-name="squaremediumwhite" unicode="&#x25fb;" horiz-adv-x="474" d="M414 450 L414 96 L60 96 L60 450 L414 450 Z M324 360 L150 360 L150 186 L324 186 L324 360 Z " />
<glyph glyph-name="squaremediumblack" unicode="&#x25fc;" horiz-adv-x="474" d="M414 450 L414 96 L60 96 L60 450 L414 450 Z " />
<glyph glyph-name="circleblack" unicode="&#x25cf;" horiz-adv-x="454" d="M404 273 Q404 200 352.5 148 Q301 96 227 96 Q154 96 102 148 Q50 200 50 273 Q50 347 102 398.5 Q154 450 227 450 Q301 450 352.5 398.5 Q404 347 404 273 Z " />
<glyph glyph-name="circlewhite" unicode="&#x25cb;" horiz-adv-x="454" d="M404 273 Q404 200 352.5 148 Q301 96 227 96 Q154 96 102 148 Q50 200 50 273 Q50 347 102 398.5 Q154 450 227 450 Q301 450 352.5 398.5 Q404 347 404 273 Z M314 273 Q314 309 288.5 334.5 Q263 360 227 360 Q191 360 165.5 334.5 Q140 309 140 273 Q140 237 165.5 211.5 Q191 186 227 186 Q263 186 288.5 211.5 Q314 237 314 273 Z " />
<glyph glyph-name="triangleupblack" unicode="&#x25b2;" horiz-adv-x="480" d="M240 450 L440 96 L40 96 L240 450 Z " />
<glyph glyph-name="trianglerightblack" unicode="&#x25b6;" horiz-adv-x="468" d="M80 477 L428 273 L80 70 L80 477 Z " />
<glyph glyph-name="triangledownblack" unicode="&#x25bc;" horiz-adv-x="480" d="M240 96 L40 450 L440 450 L240 96 Z " />
<glyph glyph-name="triangleleftblack" unicode="&#x25c0;" horiz-adv-x="468" d="M388 70 L40 274 L388 477 L388 70 Z " />
</font>
</svg>
