<?xml version="1.0" encoding="UTF-8"?>
<svg xmlns="http://www.w3.org/2000/svg" xmlns:xlink="http://www.w3.org/1999/xlink" version="1.2" >
<font id="Luciole Italic">
<font-face  font-family="Luciole" units-per-em="1000" ascent="791" descent="-224" font-style="italic" font-weight="400" font-stretch="normal" slope="-15" cap-height="763" x-height="545" underline-position="-130" underline-thickness="90" />
<missing-glyph  horiz-adv-x="860" d="M770 802 L770 -235 L90 -235 L90 802 L770 802 Z M680 712 L180 712 L180 -145 L680 -145 L680 712 Z M613 466 Q613 432 598 400 Q583 368 534 313 Q479 252 462 213 Q445 174 445 131 L344 131 Q343 185 361 231.5 Q379 278 436 343 Q474 387 485 409.5 Q496 432 496 455 Q496 498 471 522 Q446 546 402 546 Q362 546 319.5 529 Q277 512 247 484 L247 595 Q281 620 325 633.5 Q369 647 414 647 Q504 647 558.5 598.5 Q613 550 613 466 Z M473 -10 Q473 -42 450 -65 Q427 -88 395 -88 Q363 -88 340 -65 Q317 -42 317 -10 Q317 22 340 45 Q363 68 395 68 Q427 68 450 45 Q473 22 473 -10 Z " />
<glyph glyph-name="NULL" horiz-adv-x="65516" d="" />
<glyph glyph-name="CR" unicode="&#xd;" horiz-adv-x="357" d="" />
<glyph glyph-name="space" unicode="&#x20;" horiz-adv-x="357" d="" />
<glyph glyph-name="thinspace" unicode="&#x2009;" horiz-adv-x="180" d="" />
<glyph glyph-name="A" unicode="A" horiz-adv-x="685" d="M158 175 L59 0 L-72 0 L375 763 L516 763 L553 0 L432 0 L427 175 L158 175 Z M417 642 Q361 536 346.5 509.5 Q332 483 318 458 L220 284 L424 284 L421 459 Q420 564 420 594.5 Q420 625 420 642 L417 642 Z " />
<glyph glyph-name="Agrave" unicode="&#xc0;" horiz-adv-x="685" d="M221 952 L295 1046 L496 886 L442 825 L221 952 Z M158 175 L59 0 L-72 0 L375 763 L516 763 L553 0 L432 0 L427 175 L158 175 Z M417 642 Q361 536 346.5 509.5 Q332 483 318 458 L220 284 L424 284 L421 459 Q420 564 420 594.5 Q420 625 420 642 L417 642 Z " />
<glyph glyph-name="Aacute" unicode="&#xc1;" horiz-adv-x="685" d="M707 948 L442 825 L413 894 L655 1049 L707 948 Z M158 175 L59 0 L-72 0 L375 763 L516 763 L553 0 L432 0 L427 175 L158 175 Z M417 642 Q361 536 346.5 509.5 Q332 483 318 458 L220 284 L424 284 L421 459 Q420 564 420 594.5 Q420 625 420 642 L417 642 Z " />
<glyph glyph-name="Acircumflex" unicode="&#xc2;" horiz-adv-x="685" d="M500 933 L332 817 L290 882 L474 1031 L559 1031 L665 871 L599 817 L500 933 Z M158 175 L59 0 L-72 0 L375 763 L516 763 L553 0 L432 0 L427 175 L158 175 Z M417 642 Q361 536 346.5 509.5 Q332 483 318 458 L220 284 L424 284 L421 459 Q420 564 420 594.5 Q420 625 420 642 L417 642 Z " />
<glyph glyph-name="Atilde" unicode="&#xc3;" horiz-adv-x="685" d="M668 998 Q656 920 627 884.5 Q598 849 545 849 Q528 849 509.5 856 Q491 863 460 884 Q439 898 430 902 Q421 906 414 906 Q400 906 391 891.5 Q382 877 377 847 L298 847 Q310 925 339 960.5 Q368 996 420 996 Q439 996 458.5 989 Q478 982 510 961 Q529 948 537.5 944.5 Q546 941 553 941 Q567 941 576 955 Q585 969 589 998 L668 998 Z M158 175 L59 0 L-72 0 L375 763 L516 763 L553 0 L432 0 L427 175 L158 175 Z M417 642 Q361 536 346.5 509.5 Q332 483 318 458 L220 284 L424 284 L421 459 Q420 564 420 594.5 Q420 625 420 642 L417 642 Z " />
<glyph glyph-name="Adieresis" unicode="&#xc4;" horiz-adv-x="685" d="M695 941 Q686 908 658 885.5 Q630 863 596 863 Q563 863 546.5 885.5 Q530 908 539 941 Q548 974 576.5 996.5 Q605 1019 638 1019 Q671 1019 687.5 996.5 Q704 974 695 941 Z M445 941 Q436 908 408 885.5 Q380 863 346 863 Q313 863 296.5 885.5 Q280 908 289 941 Q298 974 326.5 996.5 Q355 1019 388 1019 Q421 1019 437.5 996.5 Q454 974 445 941 Z M158 175 L59 0 L-72 0 L375 763 L516 763 L553 0 L432 0 L427 175 L158 175 Z M417 642 Q361 536 346.5 509.5 Q332 483 318 458 L220 284 L424 284 L421 459 Q420 564 420 594.5 Q420 625 420 642 L417 642 Z " />
<glyph glyph-name="Aring" unicode="&#xc5;" horiz-adv-x="685" d="M515 1044 Q590 1043 627.5 1005 Q665 967 650 913 Q635 861 584 831 Q533 801 461 802 Q385 803 347.5 840.5 Q310 878 325 932 Q340 985 391 1015 Q442 1045 515 1044 Z M492 969 Q461 969 440.5 958 Q420 947 415 929 Q409 905 426 891 Q443 877 480 877 Q512 877 534 888 Q556 899 560 916 Q566 940 548 954.5 Q530 969 492 969 Z M158 175 L59 0 L-72 0 L375 763 L516 763 L553 0 L432 0 L427 175 L158 175 Z M417 642 Q361 536 346.5 509.5 Q332 483 318 458 L220 284 L424 284 L421 459 Q420 564 420 594.5 Q420 625 420 642 L417 642 Z " />
<glyph glyph-name="Amacron" unicode="&#x100;" horiz-adv-x="685" d="M682 975 L658 883 L296 883 L320 975 L682 975 Z M158 175 L59 0 L-72 0 L375 763 L516 763 L553 0 L432 0 L427 175 L158 175 Z M417 642 Q361 536 346.5 509.5 Q332 483 318 458 L220 284 L424 284 L421 459 Q420 564 420 594.5 Q420 625 420 642 L417 642 Z " />
<glyph glyph-name="Abreve" unicode="&#x102;" horiz-adv-x="685" d="M689 1004 Q669 920 611 871.5 Q553 823 469 823 Q386 823 347.5 875 Q309 927 329 1004 L412 1004 Q403 962 421.5 937.5 Q440 913 484 913 Q529 913 561 937.5 Q593 962 606 1004 L689 1004 Z M158 175 L59 0 L-72 0 L375 763 L516 763 L553 0 L432 0 L427 175 L158 175 Z M417 642 Q361 536 346.5 509.5 Q332 483 318 458 L220 284 L424 284 L421 459 Q420 564 420 594.5 Q420 625 420 642 L417 642 Z " />
<glyph glyph-name="Aogonek" unicode="&#x104;" horiz-adv-x="685" d="M495 -214 Q475 -225 451.5 -230.5 Q428 -236 406 -235 Q363 -233 341 -204.5 Q319 -176 328 -135 Q336 -98 361.5 -67 Q387 -36 441 0 L432 0 L427 175 L158 175 L59 0 L-72 0 L375 763 L516 763 L553 0 Q509 -22 476 -55 Q443 -88 439 -113 Q437 -130 444.5 -138.5 Q452 -147 469 -147 Q480 -147 492.5 -143.5 Q505 -140 516 -134 L495 -214 Z M417 642 Q361 536 346.5 509.5 Q332 483 318 458 L220 284 L424 284 L421 459 Q420 564 420 594.5 Q420 625 420 642 L417 642 Z " />
<glyph glyph-name="Aringacute" unicode="&#x1fa;" horiz-adv-x="685" d="M692 1179 L427 1056 L398 1125 L640 1280 L692 1179 Z M517 1044 Q592 1043 629.5 1005 Q667 967 652 913 Q637 861 586 831 Q535 801 463 802 Q387 803 349.5 840.5 Q312 878 327 932 Q342 985 393 1015 Q444 1045 517 1044 Z M494 969 Q463 969 442.5 958 Q422 947 417 929 Q411 905 428 891 Q445 877 482 877 Q514 877 536 888 Q558 899 562 916 Q568 940 550 954.5 Q532 969 494 969 Z M158 175 L59 0 L-72 0 L375 763 L516 763 L553 0 L432 0 L427 175 L158 175 Z M417 642 Q361 536 346.5 509.5 Q332 483 318 458 L220 284 L424 284 L421 459 Q420 564 420 594.5 Q420 625 420 642 L417 642 Z " />
<glyph glyph-name="AE" unicode="&#xc6;" horiz-adv-x="934" d="M-91 0 L475 763 L949 763 L920 654 L645 654 L590 447 L850 447 L821 338 L561 338 L499 109 L801 109 L772 0 L349 0 L396 175 L179 175 L55 0 L-91 0 Z M520 656 L256 284 L425 284 L524 656 L520 656 Z " />
<glyph glyph-name="AEacute" unicode="&#x1fc;" horiz-adv-x="934" d="M920 948 L655 825 L626 894 L868 1049 L920 948 Z M-91 0 L475 763 L949 763 L920 654 L645 654 L590 447 L850 447 L821 338 L561 338 L499 109 L801 109 L772 0 L349 0 L396 175 L179 175 L55 0 L-91 0 Z M520 656 L256 284 L425 284 L524 656 L520 656 Z " />
<glyph glyph-name="B" unicode="B" horiz-adv-x="663" d="M440 763 Q546 763 595.5 708.5 Q645 654 622 560 Q606 495 566.5 453 Q527 411 467 395 L466 393 Q525 383 551 331.5 Q577 280 557 206 Q533 110 452 55 Q371 0 251 0 L-12 0 L192 763 L440 763 Z M228 444 L339 444 Q405 444 446 471.5 Q487 499 501 551 Q515 604 489.5 631.5 Q464 659 402 659 L286 659 L228 444 Z M137 104 L273 104 Q339 104 382.5 135 Q426 166 439 222 Q453 278 421 309 Q389 340 316 340 L200 340 L137 104 Z " />
<glyph glyph-name="C" unicode="C" horiz-adv-x="629" d="M179 409 Q140 261 176 180 Q212 99 313 99 Q360 99 414 116.5 Q468 134 522 167 L490 44 Q442 17 385 3 Q328 -11 269 -11 Q190 -11 134.5 29 Q79 69 55 143 Q36 200 38 271.5 Q40 343 63 424 Q109 585 222.5 679.5 Q336 774 488 774 Q542 774 591 760 Q640 746 666 722 L635 605 Q601 634 558 649.5 Q515 665 470 665 Q371 665 290.5 594.5 Q210 524 179 409 Z " />
<glyph glyph-name="Ccedilla" unicode="&#xc7;" horiz-adv-x="629" d="M352 -56 Q336 -115 290.5 -147 Q245 -179 184 -179 Q166 -179 150.5 -177 Q135 -175 122 -171 Q128 -148 134.5 -125 Q141 -102 147 -79 Q158 -83 170 -85 Q182 -87 194 -87 Q216 -87 232.5 -76 Q249 -65 254 -46 Q256 -37 256 -27.5 Q256 -18 253 -11 Q180 -7 129 33 Q78 73 55 143 Q36 200 38 271.5 Q40 343 63 424 Q109 585 222.5 679.5 Q336 774 488 774 Q542 774 591 760 Q640 746 666 722 L635 605 Q601 634 558 649.5 Q515 665 470 665 Q371 665 290.5 594.5 Q210 524 179 409 Q140 261 176 180 Q212 99 313 99 Q360 99 414 116.5 Q468 134 522 167 L490 44 Q459 26 423.5 14 Q388 2 351 -4 Q355 -16 355.5 -29.5 Q356 -43 352 -56 Z " />
<glyph glyph-name="Cacute" unicode="&#x106;" horiz-adv-x="629" d="M717 948 L452 825 L423 894 L665 1049 L717 948 Z M179 409 Q140 261 176 180 Q212 99 313 99 Q360 99 414 116.5 Q468 134 522 167 L490 44 Q442 17 385 3 Q328 -11 269 -11 Q190 -11 134.5 29 Q79 69 55 143 Q36 200 38 271.5 Q40 343 63 424 Q109 585 222.5 679.5 Q336 774 488 774 Q542 774 591 760 Q640 746 666 722 L635 605 Q601 634 558 649.5 Q515 665 470 665 Q371 665 290.5 594.5 Q210 524 179 409 Z " />
<glyph glyph-name="Ccircumflex" unicode="&#x108;" horiz-adv-x="629" d="M536 933 L368 817 L326 882 L510 1031 L595 1031 L701 871 L635 817 L536 933 Z M179 409 Q140 261 176 180 Q212 99 313 99 Q360 99 414 116.5 Q468 134 522 167 L490 44 Q442 17 385 3 Q328 -11 269 -11 Q190 -11 134.5 29 Q79 69 55 143 Q36 200 38 271.5 Q40 343 63 424 Q109 585 222.5 679.5 Q336 774 488 774 Q542 774 591 760 Q640 746 666 722 L635 605 Q601 634 558 649.5 Q515 665 470 665 Q371 665 290.5 594.5 Q210 524 179 409 Z " />
<glyph glyph-name="Cdotaccent" unicode="&#x10a;" horiz-adv-x="629" d="M596 941 Q587 908 559 885.5 Q531 863 497 863 Q464 863 447.5 885.5 Q431 908 440 941 Q449 974 477.5 996.5 Q506 1019 539 1019 Q572 1019 588.5 996.5 Q605 974 596 941 Z M179 409 Q140 261 176 180 Q212 99 313 99 Q360 99 414 116.5 Q468 134 522 167 L490 44 Q442 17 385 3 Q328 -11 269 -11 Q190 -11 134.5 29 Q79 69 55 143 Q36 200 38 271.5 Q40 343 63 424 Q109 585 222.5 679.5 Q336 774 488 774 Q542 774 591 760 Q640 746 666 722 L635 605 Q601 634 558 649.5 Q515 665 470 665 Q371 665 290.5 594.5 Q210 524 179 409 Z " />
<glyph glyph-name="Ccaron" unicode="&#x10c;" horiz-adv-x="629" d="M512 916 L680 1032 L722 967 L538 818 L453 818 L347 978 L413 1032 L512 916 Z M179 409 Q140 261 176 180 Q212 99 313 99 Q360 99 414 116.5 Q468 134 522 167 L490 44 Q442 17 385 3 Q328 -11 269 -11 Q190 -11 134.5 29 Q79 69 55 143 Q36 200 38 271.5 Q40 343 63 424 Q109 585 222.5 679.5 Q336 774 488 774 Q542 774 591 760 Q640 746 666 722 L635 605 Q601 634 558 649.5 Q515 665 470 665 Q371 665 290.5 594.5 Q210 524 179 409 Z " />
<glyph glyph-name="D" unicode="D" horiz-adv-x="724" d="M667 354 Q626 196 511.5 98 Q397 0 246 0 L-12 0 L192 763 L426 763 Q584 763 649.5 651 Q715 539 667 354 Z M397 654 L284 654 L138 109 L275 109 Q370 109 444.5 177.5 Q519 246 547 355 Q583 496 544 575 Q505 654 397 654 Z " />
<glyph glyph-name="Dcaron" unicode="&#x10e;" horiz-adv-x="724" d="M466 916 L634 1032 L676 967 L492 818 L407 818 L301 978 L367 1032 L466 916 Z M667 354 Q626 196 511.5 98 Q397 0 246 0 L-12 0 L192 763 L426 763 Q584 763 649.5 651 Q715 539 667 354 Z M397 654 L284 654 L138 109 L275 109 Q370 109 444.5 177.5 Q519 246 547 355 Q583 496 544 575 Q505 654 397 654 Z " />
<glyph glyph-name="Dcroat" unicode="&#x110;" horiz-adv-x="724" d="M667 354 Q626 196 511.5 98 Q397 0 246 0 L-12 0 L79 342 L-4 342 L24 443 L106 443 L192 763 L426 763 Q584 763 649.5 651 Q715 539 667 354 Z M138 109 L275 109 Q370 109 444.5 177.5 Q519 246 547 355 Q583 496 544 575 Q505 654 397 654 L284 654 L227 443 L360 443 L332 342 L200 342 L138 109 Z " />
<glyph glyph-name="Eth" unicode="&#xd0;" horiz-adv-x="724" d="M667 354 Q626 196 511.5 98 Q397 0 246 0 L-12 0 L79 342 L-4 342 L24 443 L106 443 L192 763 L426 763 Q584 763 649.5 651 Q715 539 667 354 Z M138 109 L275 109 Q370 109 444.5 177.5 Q519 246 547 355 Q583 496 544 575 Q505 654 397 654 L284 654 L227 443 L360 443 L332 342 L200 342 L138 109 Z " />
<glyph glyph-name="E" unicode="E" horiz-adv-x="573" d="M440 109 L411 0 L-12 0 L192 763 L588 763 L559 654 L284 654 L229 447 L489 447 L460 338 L200 338 L138 109 L440 109 Z " />
<glyph glyph-name="Egrave" unicode="&#xc8;" horiz-adv-x="573" d="M206 952 L280 1046 L481 886 L427 825 L206 952 Z M440 109 L411 0 L-12 0 L192 763 L588 763 L559 654 L284 654 L229 447 L489 447 L460 338 L200 338 L138 109 L440 109 Z " />
<glyph glyph-name="Eacute" unicode="&#xc9;" horiz-adv-x="573" d="M629 948 L364 825 L335 894 L577 1049 L629 948 Z M440 109 L411 0 L-12 0 L192 763 L588 763 L559 654 L284 654 L229 447 L489 447 L460 338 L200 338 L138 109 L440 109 Z " />
<glyph glyph-name="Ecircumflex" unicode="&#xca;" horiz-adv-x="573" d="M454 933 L286 817 L244 882 L428 1031 L513 1031 L619 871 L553 817 L454 933 Z M440 109 L411 0 L-12 0 L192 763 L588 763 L559 654 L284 654 L229 447 L489 447 L460 338 L200 338 L138 109 L440 109 Z " />
<glyph glyph-name="Edieresis" unicode="&#xcb;" horiz-adv-x="573" d="M649 941 Q640 908 612 885.5 Q584 863 550 863 Q517 863 500.5 885.5 Q484 908 493 941 Q502 974 530.5 996.5 Q559 1019 592 1019 Q625 1019 641.5 996.5 Q658 974 649 941 Z M399 941 Q390 908 362 885.5 Q334 863 300 863 Q267 863 250.5 885.5 Q234 908 243 941 Q252 974 280.5 996.5 Q309 1019 342 1019 Q375 1019 391.5 996.5 Q408 974 399 941 Z M440 109 L411 0 L-12 0 L192 763 L588 763 L559 654 L284 654 L229 447 L489 447 L460 338 L200 338 L138 109 L440 109 Z " />
<glyph glyph-name="Emacron" unicode="&#x112;" horiz-adv-x="573" d="M636 975 L612 883 L250 883 L274 975 L636 975 Z M440 109 L411 0 L-12 0 L192 763 L588 763 L559 654 L284 654 L229 447 L489 447 L460 338 L200 338 L138 109 L440 109 Z " />
<glyph glyph-name="Ebreve" unicode="&#x114;" horiz-adv-x="573" d="M643 1004 Q623 920 565 871.5 Q507 823 423 823 Q340 823 301.5 875 Q263 927 283 1004 L366 1004 Q357 962 375.5 937.5 Q394 913 438 913 Q483 913 515 937.5 Q547 962 560 1004 L643 1004 Z M440 109 L411 0 L-12 0 L192 763 L588 763 L559 654 L284 654 L229 447 L489 447 L460 338 L200 338 L138 109 L440 109 Z " />
<glyph glyph-name="Edotaccent" unicode="&#x116;" horiz-adv-x="573" d="M524 941 Q515 908 487 885.5 Q459 863 425 863 Q392 863 375.5 885.5 Q359 908 368 941 Q377 974 405.5 996.5 Q434 1019 467 1019 Q500 1019 516.5 996.5 Q533 974 524 941 Z M440 109 L411 0 L-12 0 L192 763 L588 763 L559 654 L284 654 L229 447 L489 447 L460 338 L200 338 L138 109 L440 109 Z " />
<glyph glyph-name="Eogonek" unicode="&#x118;" horiz-adv-x="573" d="M353 -214 Q333 -225 309.5 -230.5 Q286 -236 264 -235 Q221 -233 199 -204.5 Q177 -176 186 -135 Q194 -98 219.5 -67 Q245 -36 299 0 L-12 0 L192 763 L588 763 L559 654 L284 654 L229 447 L489 447 L460 338 L200 338 L138 109 L440 109 L411 0 Q367 -22 334 -55 Q301 -88 297 -113 Q295 -130 302.5 -138.5 Q310 -147 327 -147 Q338 -147 350.5 -143.5 Q363 -140 374 -134 L353 -214 Z " />
<glyph glyph-name="Ecaron" unicode="&#x11a;" horiz-adv-x="573" d="M434 916 L602 1032 L644 967 L460 818 L375 818 L269 978 L335 1032 L434 916 Z M440 109 L411 0 L-12 0 L192 763 L588 763 L559 654 L284 654 L229 447 L489 447 L460 338 L200 338 L138 109 L440 109 Z " />
<glyph glyph-name="F" unicode="F" horiz-adv-x="552" d="M192 763 L588 763 L559 654 L284 654 L229 447 L489 447 L460 338 L200 338 L109 0 L-12 0 L192 763 Z " />
<glyph glyph-name="G" unicode="G" horiz-adv-x="723" d="M365 390 L637 390 L548 55 Q490 23 423 6 Q356 -11 289 -11 Q138 -11 74 103.5 Q10 218 59 410 Q103 582 222 678 Q341 774 506 774 Q556 774 606 763 Q656 752 700 731 L668 613 Q625 638 576.5 651.5 Q528 665 481 665 Q372 665 291.5 597.5 Q211 530 179 409 Q137 253 175.5 173 Q214 93 329 93 Q362 93 392.5 101 Q423 109 446 124 L487 281 L335 281 L365 390 Z " />
<glyph glyph-name="Gcircumflex" unicode="&#x11c;" horiz-adv-x="723" d="M549 933 L381 817 L339 882 L523 1031 L608 1031 L714 871 L648 817 L549 933 Z M365 390 L637 390 L548 55 Q490 23 423 6 Q356 -11 289 -11 Q138 -11 74 103.5 Q10 218 59 410 Q103 582 222 678 Q341 774 506 774 Q556 774 606 763 Q656 752 700 731 L668 613 Q625 638 576.5 651.5 Q528 665 481 665 Q372 665 291.5 597.5 Q211 530 179 409 Q137 253 175.5 173 Q214 93 329 93 Q362 93 392.5 101 Q423 109 446 124 L487 281 L335 281 L365 390 Z " />
<glyph glyph-name="Gbreve" unicode="&#x11e;" horiz-adv-x="723" d="M738 1004 Q718 920 660 871.5 Q602 823 518 823 Q435 823 396.5 875 Q358 927 378 1004 L461 1004 Q452 962 470.5 937.5 Q489 913 533 913 Q578 913 610 937.5 Q642 962 655 1004 L738 1004 Z M365 390 L637 390 L548 55 Q490 23 423 6 Q356 -11 289 -11 Q138 -11 74 103.5 Q10 218 59 410 Q103 582 222 678 Q341 774 506 774 Q556 774 606 763 Q656 752 700 731 L668 613 Q625 638 576.5 651.5 Q528 665 481 665 Q372 665 291.5 597.5 Q211 530 179 409 Q137 253 175.5 173 Q214 93 329 93 Q362 93 392.5 101 Q423 109 446 124 L487 281 L335 281 L365 390 Z " />
<glyph glyph-name="Gdotaccent" unicode="&#x120;" horiz-adv-x="723" d="M628 941 Q619 908 591 885.5 Q563 863 529 863 Q496 863 479.5 885.5 Q463 908 472 941 Q481 974 509.5 996.5 Q538 1019 571 1019 Q604 1019 620.5 996.5 Q637 974 628 941 Z M365 390 L637 390 L548 55 Q490 23 423 6 Q356 -11 289 -11 Q138 -11 74 103.5 Q10 218 59 410 Q103 582 222 678 Q341 774 506 774 Q556 774 606 763 Q656 752 700 731 L668 613 Q625 638 576.5 651.5 Q528 665 481 665 Q372 665 291.5 597.5 Q211 530 179 409 Q137 253 175.5 173 Q214 93 329 93 Q362 93 392.5 101 Q423 109 446 124 L487 281 L335 281 L365 390 Z " />
<glyph glyph-name="Gcommaaccent" unicode="&#x122;" horiz-adv-x="723" d="M365 390 L637 390 L548 55 Q490 23 423 6 Q356 -11 289 -11 Q138 -11 74 103.5 Q10 218 59 410 Q103 582 222 678 Q341 774 506 774 Q556 774 606 763 Q656 752 700 731 L668 613 Q625 638 576.5 651.5 Q528 665 481 665 Q372 665 291.5 597.5 Q211 530 179 409 Q137 253 175.5 173 Q214 93 329 93 Q362 93 392.5 101 Q423 109 446 124 L487 281 L335 281 L365 390 Z M368 -134 L183 -251 L141 -191 L293 -53 L368 -134 Z " />
<glyph glyph-name="H" unicode="H" horiz-adv-x="762" d="M200 338 L109 0 L-12 0 L192 763 L313 763 L229 447 L569 447 L653 763 L774 763 L570 0 L449 0 L540 338 L200 338 Z " />
<glyph glyph-name="Hcircumflex" unicode="&#x124;" horiz-adv-x="762" d="M529 933 L361 817 L319 882 L503 1031 L588 1031 L694 871 L628 817 L529 933 Z M200 338 L109 0 L-12 0 L192 763 L313 763 L229 447 L569 447 L653 763 L774 763 L570 0 L449 0 L540 338 L200 338 Z " />
<glyph glyph-name="Hbar" unicode="&#x126;" horiz-adv-x="762" d="M200 338 L109 0 L-12 0 L134 545 L73 545 L102 654 L163 654 L192 763 L313 763 L284 654 L624 654 L653 763 L774 763 L745 654 L804 654 L775 545 L716 545 L570 0 L449 0 L540 338 L200 338 Z M229 447 L569 447 L595 545 L255 545 L229 447 Z " />
<glyph glyph-name="I" unicode="I" horiz-adv-x="494" d="M351 109 L322 0 L-32 0 L-3 109 L114 109 L260 654 L143 654 L172 763 L526 763 L497 654 L380 654 L234 109 L351 109 Z " />
<glyph glyph-name="Igrave" unicode="&#xcc;" horiz-adv-x="494" d="M138 952 L212 1046 L413 886 L359 825 L138 952 Z M351 109 L322 0 L-32 0 L-3 109 L114 109 L260 654 L143 654 L172 763 L526 763 L497 654 L380 654 L234 109 L351 109 Z " />
<glyph glyph-name="Iacute" unicode="&#xcd;" horiz-adv-x="494" d="M622 948 L357 825 L328 894 L570 1049 L622 948 Z M351 109 L322 0 L-32 0 L-3 109 L114 109 L260 654 L143 654 L172 763 L526 763 L497 654 L380 654 L234 109 L351 109 Z " />
<glyph glyph-name="Icircumflex" unicode="&#xce;" horiz-adv-x="494" d="M405 933 L237 817 L195 882 L379 1031 L464 1031 L570 871 L504 817 L405 933 Z M351 109 L322 0 L-32 0 L-3 109 L114 109 L260 654 L143 654 L172 763 L526 763 L497 654 L380 654 L234 109 L351 109 Z " />
<glyph glyph-name="Idieresis" unicode="&#xcf;" horiz-adv-x="494" d="M600 941 Q591 908 563 885.5 Q535 863 501 863 Q468 863 451.5 885.5 Q435 908 444 941 Q453 974 481.5 996.5 Q510 1019 543 1019 Q576 1019 592.5 996.5 Q609 974 600 941 Z M350 941 Q341 908 313 885.5 Q285 863 251 863 Q218 863 201.5 885.5 Q185 908 194 941 Q203 974 231.5 996.5 Q260 1019 293 1019 Q326 1019 342.5 996.5 Q359 974 350 941 Z M351 109 L322 0 L-32 0 L-3 109 L114 109 L260 654 L143 654 L172 763 L526 763 L497 654 L380 654 L234 109 L351 109 Z " />
<glyph glyph-name="Itilde" unicode="&#x128;" horiz-adv-x="494" d="M577 998 Q565 920 536 884.5 Q507 849 454 849 Q437 849 418.5 856 Q400 863 369 884 Q348 898 339 902 Q330 906 323 906 Q309 906 300 891.5 Q291 877 286 847 L207 847 Q219 925 248 960.5 Q277 996 329 996 Q348 996 367.5 989 Q387 982 419 961 Q438 948 446.5 944.5 Q455 941 462 941 Q476 941 485 955 Q494 969 498 998 L577 998 Z M351 109 L322 0 L-32 0 L-3 109 L114 109 L260 654 L143 654 L172 763 L526 763 L497 654 L380 654 L234 109 L351 109 Z " />
<glyph glyph-name="Imacron" unicode="&#x12a;" horiz-adv-x="494" d="M587 975 L563 883 L201 883 L225 975 L587 975 Z M351 109 L322 0 L-32 0 L-3 109 L114 109 L260 654 L143 654 L172 763 L526 763 L497 654 L380 654 L234 109 L351 109 Z " />
<glyph glyph-name="Ibreve" unicode="&#x12c;" horiz-adv-x="494" d="M594 1004 Q574 920 516 871.5 Q458 823 374 823 Q291 823 252.5 875 Q214 927 234 1004 L317 1004 Q308 962 326.5 937.5 Q345 913 389 913 Q434 913 466 937.5 Q498 962 511 1004 L594 1004 Z M351 109 L322 0 L-32 0 L-3 109 L114 109 L260 654 L143 654 L172 763 L526 763 L497 654 L380 654 L234 109 L351 109 Z " />
<glyph glyph-name="Iogonek" unicode="&#x12e;" horiz-adv-x="494" d="M157 -214 Q137 -225 113.5 -230.5 Q90 -236 68 -235 Q25 -233 3 -204.5 Q-19 -176 -10 -135 Q-2 -98 23.5 -67 Q49 -36 103 0 L-32 0 L-3 109 L114 109 L260 654 L143 654 L172 763 L526 763 L497 654 L380 654 L234 109 L351 109 L322 0 L215 0 Q171 -22 138 -55 Q105 -88 101 -113 Q99 -130 106.5 -138.5 Q114 -147 131 -147 Q142 -147 154.5 -143.5 Q167 -140 178 -134 L157 -214 Z " />
<glyph glyph-name="Idot" unicode="&#x130;" horiz-adv-x="494" d="M475 941 Q466 908 438 885.5 Q410 863 376 863 Q343 863 326.5 885.5 Q310 908 319 941 Q328 974 356.5 996.5 Q385 1019 418 1019 Q451 1019 467.5 996.5 Q484 974 475 941 Z M351 109 L322 0 L-32 0 L-3 109 L114 109 L260 654 L143 654 L172 763 L526 763 L497 654 L380 654 L234 109 L351 109 Z " />
<glyph glyph-name="IJ" unicode="&#x132;" horiz-adv-x="988" d="M873 289 Q827 115 759 52 Q691 -11 558 -11 Q511 -11 475 -4.5 Q439 2 425 12 L456 127 Q474 115 510.5 107.5 Q547 100 584 100 Q631 100 662 119.5 Q693 139 715 183 Q726 206 736.5 238 Q747 270 766 341 L850 654 L618 654 L647 763 L1000 763 L873 289 Z M351 109 L322 0 L-32 0 L-3 109 L114 109 L260 654 L143 654 L172 763 L526 763 L497 654 L380 654 L234 109 L351 109 Z " />
<glyph glyph-name="J" unicode="J" horiz-adv-x="524" d="M409 289 Q363 115 295 52 Q227 -11 94 -11 Q47 -11 11 -4.5 Q-25 2 -39 12 L-8 127 Q10 115 46.5 107.5 Q83 100 120 100 Q167 100 198 119.5 Q229 139 251 183 Q262 206 272.5 238 Q283 270 302 341 L386 654 L154 654 L183 763 L536 763 L409 289 Z " />
<glyph glyph-name="Jcircumflex" unicode="&#x134;" horiz-adv-x="524" d="M413 933 L245 817 L203 882 L387 1031 L472 1031 L578 871 L512 817 L413 933 Z M409 289 Q363 115 295 52 Q227 -11 94 -11 Q47 -11 11 -4.5 Q-25 2 -39 12 L-8 127 Q10 115 46.5 107.5 Q83 100 120 100 Q167 100 198 119.5 Q229 139 251 183 Q262 206 272.5 238 Q283 270 302 341 L386 654 L154 654 L183 763 L536 763 L409 289 Z " />
<glyph glyph-name="K" unicode="K" horiz-adv-x="640" d="M203 356 L108 0 L-12 0 L192 763 L312 763 L231 461 Q265 461 288.5 477 Q312 493 358 538 Q376 557 402 583.5 Q428 610 466 650 Q483 669 506.5 693.5 Q530 718 572 763 L717 763 L422 463 Q412 453 402 444.5 Q392 436 382 429 Q367 420 355 415 Q343 410 334 410 L333 407 Q340 406 347.5 399.5 Q355 393 363 381 Q369 374 374 365 Q379 356 383 345 L528 0 L394 0 Q380 39 372 61.5 Q364 84 358 101 Q346 134 337.5 158 Q329 182 321 201 Q308 235 298.5 258.5 Q289 282 281 298 Q265 331 251 343.5 Q237 356 203 356 Z " />
<glyph glyph-name="Kcommaaccent" unicode="&#x136;" horiz-adv-x="640" d="M203 356 L108 0 L-12 0 L192 763 L312 763 L231 461 Q265 461 288.5 477 Q312 493 358 538 Q376 557 402 583.5 Q428 610 466 650 Q483 669 506.5 693.5 Q530 718 572 763 L717 763 L422 463 Q412 453 402 444.5 Q392 436 382 429 Q367 420 355 415 Q343 410 334 410 L333 407 Q340 406 347.5 399.5 Q355 393 363 381 Q369 374 374 365 Q379 356 383 345 L528 0 L394 0 Q380 39 372 61.5 Q364 84 358 101 Q346 134 337.5 158 Q329 182 321 201 Q308 235 298.5 258.5 Q289 282 281 298 Q265 331 251 343.5 Q237 356 203 356 Z M296 -134 L111 -251 L69 -191 L221 -53 L296 -134 Z " />
<glyph glyph-name="L" unicode="L" horiz-adv-x="543" d="M430 109 L401 0 L-12 0 L192 763 L313 763 L138 109 L430 109 Z " />
<glyph glyph-name="Lacute" unicode="&#x139;" horiz-adv-x="543" d="M518 948 L253 825 L224 894 L466 1049 L518 948 Z M430 109 L401 0 L-12 0 L192 763 L313 763 L138 109 L430 109 Z " />
<glyph glyph-name="Lcommaaccent" unicode="&#x13b;" horiz-adv-x="543" d="M430 109 L401 0 L-12 0 L192 763 L313 763 L138 109 L430 109 Z M293 -134 L108 -251 L66 -191 L218 -53 L293 -134 Z " />
<glyph glyph-name="Lcaron" unicode="&#x13d;" horiz-adv-x="543" d="M627 880 L465 628 L392 653 L510 905 L627 880 Z M430 109 L401 0 L-12 0 L192 763 L313 763 L138 109 L430 109 Z " />
<glyph glyph-name="Ldot" unicode="&#x13f;" horiz-adv-x="543" d="M430 109 L401 0 L-12 0 L192 763 L313 763 L138 109 L430 109 Z M467 478 Q458 445 430 422.5 Q402 400 368 400 Q335 400 318.5 422.5 Q302 445 311 478 Q320 511 348.5 533.5 Q377 556 410 556 Q443 556 459.5 533.5 Q476 511 467 478 Z " />
<glyph glyph-name="Lslash" unicode="&#x141;" horiz-adv-x="543" d="M430 109 L401 0 L-12 0 L48 224 L-48 168 L-13 298 L83 354 L192 763 L313 763 L226 438 L500 598 L465 468 L191 308 L138 109 L430 109 Z " />
<glyph glyph-name="M" unicode="M" horiz-adv-x="926" d="M225 437 L95 0 L-27 0 L213 763 L351 763 L392 253 Q394 222 395 192 Q396 162 395 130 L398 130 Q398 130 422.5 175 Q447 220 468 254 L777 763 L917 763 L749 0 L627 0 L729 437 Q738 475 749.5 512 Q761 549 774 585 L771 585 Q752 549 731.5 512 Q711 475 688 437 L424 0 L298 0 L266 437 Q264 475 263 512 Q262 549 263 585 L260 585 Q254 549 245 512 Q236 475 225 437 Z " />
<glyph glyph-name="N" unicode="N" horiz-adv-x="762" d="M233 463 L109 0 L-12 0 L192 763 L313 763 L471 295 Q478 275 485 246 Q492 217 499 179 L503 179 Q510 217 516.5 247 Q523 277 529 300 L653 763 L774 763 L570 0 L449 0 L292 468 Q283 494 276 523 Q269 552 264 584 L260 584 Q254 552 247.5 522 Q241 492 233 463 Z " />
<glyph glyph-name="Ntilde" unicode="&#xd1;" horiz-adv-x="762" d="M705 999 Q693 921 664 885.5 Q635 850 582 850 Q565 850 546.5 857 Q528 864 497 885 Q476 899 467 903 Q458 907 451 907 Q437 907 428 892.5 Q419 878 414 848 L335 848 Q347 926 376 961.5 Q405 997 457 997 Q476 997 495.5 990 Q515 983 547 962 Q566 949 574.5 945.5 Q583 942 590 942 Q604 942 613 956 Q622 970 626 999 L705 999 Z M233 463 L109 0 L-12 0 L192 763 L313 763 L471 295 Q478 275 485 246 Q492 217 499 179 L503 179 Q510 217 516.5 247 Q523 277 529 300 L653 763 L774 763 L570 0 L449 0 L292 468 Q283 494 276 523 Q269 552 264 584 L260 584 Q254 552 247.5 522 Q241 492 233 463 Z " />
<glyph glyph-name="Nacute" unicode="&#x143;" horiz-adv-x="762" d="M749 948 L484 825 L455 894 L697 1049 L749 948 Z M233 463 L109 0 L-12 0 L192 763 L313 763 L471 295 Q478 275 485 246 Q492 217 499 179 L503 179 Q510 217 516.5 247 Q523 277 529 300 L653 763 L774 763 L570 0 L449 0 L292 468 Q283 494 276 523 Q269 552 264 584 L260 584 Q254 552 247.5 522 Q241 492 233 463 Z " />
<glyph glyph-name="Ncommaaccent" unicode="&#x145;" horiz-adv-x="762" d="M233 463 L109 0 L-12 0 L192 763 L313 763 L471 295 Q478 275 485 246 Q492 217 499 179 L503 179 Q510 217 516.5 247 Q523 277 529 300 L653 763 L774 763 L570 0 L449 0 L292 468 Q283 494 276 523 Q269 552 264 584 L260 584 Q254 552 247.5 522 Q241 492 233 463 Z M354 -133 L169 -250 L127 -190 L279 -52 L354 -133 Z " />
<glyph glyph-name="Ncaron" unicode="&#x147;" horiz-adv-x="762" d="M503 918 L671 1034 L713 969 L529 820 L444 820 L338 980 L404 1034 L503 918 Z M233 463 L109 0 L-12 0 L192 763 L313 763 L471 295 Q478 275 485 246 Q492 217 499 179 L503 179 Q510 217 516.5 247 Q523 277 529 300 L653 763 L774 763 L570 0 L449 0 L292 468 Q283 494 276 523 Q269 552 264 584 L260 584 Q254 552 247.5 522 Q241 492 233 463 Z " />
<glyph glyph-name="Eng" unicode="&#x14a;" horiz-adv-x="762" d="M570 0 L568 0 Q524 -135 458 -185 Q392 -235 272 -235 Q237 -235 194 -228 Q151 -221 139 -212 L170 -97 Q189 -110 223.5 -117 Q258 -124 301 -124 Q347 -124 377.5 -104 Q408 -84 430 -40 Q434 -30 438.5 -19.5 Q443 -9 447 5 L292 468 Q283 494 276 523 Q269 552 264 584 L260 584 Q254 552 247.5 522 Q241 492 233 463 L109 0 L-12 0 L192 763 L313 763 L471 295 Q478 275 485 246 Q492 217 499 179 L503 179 Q510 217 516.5 247 Q523 277 529 300 L653 763 L774 763 L610 149 L610 149 L603 124 L570 0 Z " />
<glyph glyph-name="O" unicode="O" horiz-adv-x="785" d="M33 255 Q32 344 65.5 438.5 Q99 533 159 608 Q224 689 309 731.5 Q394 774 490 774 Q614 774 683.5 705 Q753 636 755 508 Q756 419 722.5 324.5 Q689 230 629 155 Q564 74 479 31.5 Q394 -11 298 -11 Q174 -11 104.5 58 Q35 127 33 255 Z M470 665 Q369 665 287.5 586 Q206 507 172 381 Q138 254 177.5 176 Q217 98 318 98 Q419 98 500.5 177 Q582 256 616 382 Q650 509 610.5 587 Q571 665 470 665 Z " />
<glyph glyph-name="Ograve" unicode="&#xd2;" horiz-adv-x="785" d="M283 952 L357 1046 L558 886 L504 825 L283 952 Z M33 255 Q32 344 65.5 438.5 Q99 533 159 608 Q224 689 309 731.5 Q394 774 490 774 Q614 774 683.5 705 Q753 636 755 508 Q756 419 722.5 324.5 Q689 230 629 155 Q564 74 479 31.5 Q394 -11 298 -11 Q174 -11 104.5 58 Q35 127 33 255 Z M470 665 Q369 665 287.5 586 Q206 507 172 381 Q138 254 177.5 176 Q217 98 318 98 Q419 98 500.5 177 Q582 256 616 382 Q650 509 610.5 587 Q571 665 470 665 Z " />
<glyph glyph-name="Oacute" unicode="&#xd3;" horiz-adv-x="785" d="M754 948 L489 825 L460 894 L702 1049 L754 948 Z M33 255 Q32 344 65.5 438.5 Q99 533 159 608 Q224 689 309 731.5 Q394 774 490 774 Q614 774 683.5 705 Q753 636 755 508 Q756 419 722.5 324.5 Q689 230 629 155 Q564 74 479 31.5 Q394 -11 298 -11 Q174 -11 104.5 58 Q35 127 33 255 Z M470 665 Q369 665 287.5 586 Q206 507 172 381 Q138 254 177.5 176 Q217 98 318 98 Q419 98 500.5 177 Q582 256 616 382 Q650 509 610.5 587 Q571 665 470 665 Z " />
<glyph glyph-name="Ocircumflex" unicode="&#xd4;" horiz-adv-x="785" d="M551 933 L383 817 L341 882 L525 1031 L610 1031 L716 871 L650 817 L551 933 Z M33 255 Q32 344 65.5 438.5 Q99 533 159 608 Q224 689 309 731.5 Q394 774 490 774 Q614 774 683.5 705 Q753 636 755 508 Q756 419 722.5 324.5 Q689 230 629 155 Q564 74 479 31.5 Q394 -11 298 -11 Q174 -11 104.5 58 Q35 127 33 255 Z M470 665 Q369 665 287.5 586 Q206 507 172 381 Q138 254 177.5 176 Q217 98 318 98 Q419 98 500.5 177 Q582 256 616 382 Q650 509 610.5 587 Q571 665 470 665 Z " />
<glyph glyph-name="Otilde" unicode="&#xd5;" horiz-adv-x="785" d="M723 998 Q711 920 682 884.5 Q653 849 600 849 Q583 849 564.5 856 Q546 863 515 884 Q494 898 485 902 Q476 906 469 906 Q455 906 446 891.5 Q437 877 432 847 L353 847 Q365 925 394 960.5 Q423 996 475 996 Q494 996 513.5 989 Q533 982 565 961 Q584 948 592.5 944.5 Q601 941 608 941 Q622 941 631 955 Q640 969 644 998 L723 998 Z M33 255 Q32 344 65.5 438.5 Q99 533 159 608 Q224 689 309 731.5 Q394 774 490 774 Q614 774 683.5 705 Q753 636 755 508 Q756 419 722.5 324.5 Q689 230 629 155 Q564 74 479 31.5 Q394 -11 298 -11 Q174 -11 104.5 58 Q35 127 33 255 Z M470 665 Q369 665 287.5 586 Q206 507 172 381 Q138 254 177.5 176 Q217 98 318 98 Q419 98 500.5 177 Q582 256 616 382 Q650 509 610.5 587 Q571 665 470 665 Z " />
<glyph glyph-name="Odieresis" unicode="&#xd6;" horiz-adv-x="785" d="M746 941 Q737 908 709 885.5 Q681 863 647 863 Q614 863 597.5 885.5 Q581 908 590 941 Q599 974 627.5 996.5 Q656 1019 689 1019 Q722 1019 738.5 996.5 Q755 974 746 941 Z M496 941 Q487 908 459 885.5 Q431 863 397 863 Q364 863 347.5 885.5 Q331 908 340 941 Q349 974 377.5 996.5 Q406 1019 439 1019 Q472 1019 488.5 996.5 Q505 974 496 941 Z M33 255 Q32 344 65.5 438.5 Q99 533 159 608 Q224 689 309 731.5 Q394 774 490 774 Q614 774 683.5 705 Q753 636 755 508 Q756 419 722.5 324.5 Q689 230 629 155 Q564 74 479 31.5 Q394 -11 298 -11 Q174 -11 104.5 58 Q35 127 33 255 Z M470 665 Q369 665 287.5 586 Q206 507 172 381 Q138 254 177.5 176 Q217 98 318 98 Q419 98 500.5 177 Q582 256 616 382 Q650 509 610.5 587 Q571 665 470 665 Z " />
<glyph glyph-name="Omacron" unicode="&#x14c;" horiz-adv-x="785" d="M733 975 L709 883 L347 883 L371 975 L733 975 Z M33 255 Q32 344 65.5 438.5 Q99 533 159 608 Q224 689 309 731.5 Q394 774 490 774 Q614 774 683.5 705 Q753 636 755 508 Q756 419 722.5 324.5 Q689 230 629 155 Q564 74 479 31.5 Q394 -11 298 -11 Q174 -11 104.5 58 Q35 127 33 255 Z M470 665 Q369 665 287.5 586 Q206 507 172 381 Q138 254 177.5 176 Q217 98 318 98 Q419 98 500.5 177 Q582 256 616 382 Q650 509 610.5 587 Q571 665 470 665 Z " />
<glyph glyph-name="Obreve" unicode="&#x14e;" horiz-adv-x="785" d="M740 1004 Q720 920 662 871.5 Q604 823 520 823 Q437 823 398.5 875 Q360 927 380 1004 L463 1004 Q454 962 472.5 937.5 Q491 913 535 913 Q580 913 612 937.5 Q644 962 657 1004 L740 1004 Z M33 255 Q32 344 65.5 438.5 Q99 533 159 608 Q224 689 309 731.5 Q394 774 490 774 Q614 774 683.5 705 Q753 636 755 508 Q756 419 722.5 324.5 Q689 230 629 155 Q564 74 479 31.5 Q394 -11 298 -11 Q174 -11 104.5 58 Q35 127 33 255 Z M470 665 Q369 665 287.5 586 Q206 507 172 381 Q138 254 177.5 176 Q217 98 318 98 Q419 98 500.5 177 Q582 256 616 382 Q650 509 610.5 587 Q571 665 470 665 Z " />
<glyph glyph-name="Ohungarumlaut" unicode="&#x150;" horiz-adv-x="785" d="M632 969 L373 810 L337 874 L565 1058 L632 969 Z M868 927 L595 810 L575 883 L823 1031 L868 927 Z M33 255 Q32 344 65.5 438.5 Q99 533 159 608 Q224 689 309 731.5 Q394 774 490 774 Q614 774 683.5 705 Q753 636 755 508 Q756 419 722.5 324.5 Q689 230 629 155 Q564 74 479 31.5 Q394 -11 298 -11 Q174 -11 104.5 58 Q35 127 33 255 Z M470 665 Q369 665 287.5 586 Q206 507 172 381 Q138 254 177.5 176 Q217 98 318 98 Q419 98 500.5 177 Q582 256 616 382 Q650 509 610.5 587 Q571 665 470 665 Z " />
<glyph glyph-name="Oslash" unicode="&#xd8;" horiz-adv-x="785" d="M297 -11 Q241 -11 195 3.5 Q149 18 116 46 L50 -20 L-12 40 L63 114 Q48 143 40.5 178.5 Q33 214 32 255 Q31 344 64.5 438.5 Q98 533 158 608 Q223 689 308 731.5 Q393 774 489 774 Q545 774 590.5 759.5 Q636 745 669 718 L734 783 L796 723 L723 650 Q737 621 745 585.5 Q753 550 754 508 Q755 419 721.5 324.5 Q688 230 628 155 Q563 74 478 31.5 Q393 -11 297 -11 Z M171 381 Q158 332 156 289.5 Q154 247 162 214 L579 628 Q559 646 531 655.5 Q503 665 469 665 Q368 665 286.5 586 Q205 507 171 381 Z M615 382 Q628 431 630 474 Q632 517 623 551 L206 136 Q226 118 254 108 Q282 98 317 98 Q418 98 499.5 177 Q581 256 615 382 Z " />
<glyph glyph-name="Oslashacute" unicode="&#x1fe;" horiz-adv-x="785" d="M753 948 L488 825 L459 894 L701 1049 L753 948 Z M297 -11 Q241 -11 195 3.5 Q149 18 116 46 L50 -20 L-12 40 L63 114 Q48 143 40.5 178.5 Q33 214 32 255 Q31 344 64.5 438.5 Q98 533 158 608 Q223 689 308 731.5 Q393 774 489 774 Q545 774 590.5 759.5 Q636 745 669 718 L734 783 L796 723 L723 650 Q737 621 745 585.5 Q753 550 754 508 Q755 419 721.5 324.5 Q688 230 628 155 Q563 74 478 31.5 Q393 -11 297 -11 Z M171 381 Q158 332 156 289.5 Q154 247 162 214 L579 628 Q559 646 531 655.5 Q503 665 469 665 Q368 665 286.5 586 Q205 507 171 381 Z M615 382 Q628 431 630 474 Q632 517 623 551 L206 136 Q226 118 254 108 Q282 98 317 98 Q418 98 499.5 177 Q581 256 615 382 Z " />
<glyph glyph-name="OE" unicode="&#x152;" horiz-adv-x="1097" d="M513 0 L529 61 Q478 26 419.5 7.5 Q361 -11 298 -11 Q174 -11 104.5 58 Q35 127 33 255 Q32 344 65.5 438.5 Q99 533 159 608 Q224 689 309 731.5 Q394 774 490 774 Q559 774 611.5 752.5 Q664 731 698 690 L717 763 L1113 763 L1084 654 L809 654 L754 447 L1014 447 L985 338 L727 338 Q725 331 722.5 324.5 Q720 318 718 311 L663 109 L965 109 L936 0 L513 0 Z M172 381 Q138 254 177.5 176 Q217 98 318 98 Q413 98 491.5 169 Q570 240 608 354 L623 411 Q647 526 606 595.5 Q565 665 470 665 Q369 665 287.5 586 Q206 507 172 381 Z " />
<glyph glyph-name="P" unicode="P" horiz-adv-x="609" d="M176 250 L109 0 L-12 0 L192 763 L386 763 Q517 763 576 689 Q635 615 602 490 Q572 376 478.5 313 Q385 250 251 250 L176 250 Z M357 654 L284 654 L205 359 L267 359 Q357 359 409.5 393 Q462 427 482 495 Q502 574 470 614 Q438 654 357 654 Z " />
<glyph glyph-name="Thorn" unicode="&#xde;" horiz-adv-x="609" d="M220 136 L145 136 L109 0 L-12 0 L192 763 L313 763 L283 649 L355 649 Q486 649 545 575 Q604 501 571 376 Q541 262 447.5 199 Q354 136 220 136 Z M326 540 L253 540 L175 245 L236 245 Q326 245 378.5 279 Q431 313 451 381 Q471 460 439 500 Q407 540 326 540 Z " />
<glyph glyph-name="Q" unicode="Q" horiz-adv-x="792" d="M676 56 L573 -21 L521 55 Q471 23 414.5 6 Q358 -11 298 -11 Q174 -11 104.5 58 Q35 127 33 255 Q32 344 65.5 438.5 Q99 533 159 608 Q224 689 309 731.5 Q394 774 490 774 Q614 774 683.5 705 Q753 636 755 508 Q756 419 722.5 324.5 Q689 230 629 155 Q625 149 620 144 Q615 139 611 133 L676 56 Z M172 381 Q138 254 177.5 176 Q217 98 318 98 Q355 98 390 109 Q425 120 457 141 L360 260 L459 338 L541 223 Q566 256 585 296.5 Q604 337 616 382 Q650 509 610.5 587 Q571 665 470 665 Q369 665 287.5 586 Q206 507 172 381 Z " />
<glyph glyph-name="R" unicode="R" horiz-adv-x="656" d="M187 292 L109 0 L-12 0 L192 763 L378 763 Q517 763 576 696 Q635 629 604 511 Q586 441 538 391 Q490 341 420 322 L524 0 L391 0 L310 297 Q293 295 274 293.5 Q255 292 236 292 L187 292 Z M366 654 L284 654 L216 399 L288 399 Q374 399 422 428.5 Q470 458 485 518 Q503 586 473 620 Q443 654 366 654 Z " />
<glyph glyph-name="Racute" unicode="&#x154;" horiz-adv-x="656" d="M640 948 L375 825 L346 894 L588 1049 L640 948 Z M187 292 L109 0 L-12 0 L192 763 L378 763 Q517 763 576 696 Q635 629 604 511 Q586 441 538 391 Q490 341 420 322 L524 0 L391 0 L310 297 Q293 295 274 293.5 Q255 292 236 292 L187 292 Z M366 654 L284 654 L216 399 L288 399 Q374 399 422 428.5 Q470 458 485 518 Q503 586 473 620 Q443 654 366 654 Z " />
<glyph glyph-name="Rcommaaccent" unicode="&#x156;" horiz-adv-x="656" d="M187 292 L109 0 L-12 0 L192 763 L378 763 Q517 763 576 696 Q635 629 604 511 Q586 441 538 391 Q490 341 420 322 L524 0 L391 0 L310 297 Q293 295 274 293.5 Q255 292 236 292 L187 292 Z M366 654 L284 654 L216 399 L288 399 Q374 399 422 428.5 Q470 458 485 518 Q503 586 473 620 Q443 654 366 654 Z M318 -134 L133 -251 L91 -191 L243 -53 L318 -134 Z " />
<glyph glyph-name="Rcaron" unicode="&#x158;" horiz-adv-x="656" d="M436 916 L604 1032 L646 967 L462 818 L377 818 L271 978 L337 1032 L436 916 Z M187 292 L109 0 L-12 0 L192 763 L378 763 Q517 763 576 696 Q635 629 604 511 Q586 441 538 391 Q490 341 420 322 L524 0 L391 0 L310 297 Q293 295 274 293.5 Q255 292 236 292 L187 292 Z M366 654 L284 654 L216 399 L288 399 Q374 399 422 428.5 Q470 458 485 518 Q503 586 473 620 Q443 654 366 654 Z " />
<glyph glyph-name="S" unicode="S" horiz-adv-x="570" d="M455 180 Q434 91 352.5 40 Q271 -11 148 -11 Q93 -11 49 -1.5 Q5 8 -34 29 L-2 149 Q29 123 74 109 Q119 95 169 95 Q234 95 279 121 Q324 147 334 189 Q344 230 327.5 263.5 Q311 297 240 350 Q190 387 169 409 Q148 431 135 455 Q119 486 116 522.5 Q113 559 124 602 Q144 681 219.5 727.5 Q295 774 407 774 Q457 774 497.5 764.5 Q538 755 568 737 L535 611 Q513 636 471.5 650.5 Q430 665 381 665 Q326 665 289 644 Q252 623 243 587 Q232 546 248.5 513 Q265 480 336 428 Q386 392 407.5 370 Q429 348 441 325 Q458 294 461.5 258 Q465 222 455 180 Z " />
<glyph glyph-name="Sacute" unicode="&#x15a;" horiz-adv-x="570" d="M650 948 L385 825 L356 894 L598 1049 L650 948 Z M455 180 Q434 91 352.5 40 Q271 -11 148 -11 Q93 -11 49 -1.5 Q5 8 -34 29 L-2 149 Q29 123 74 109 Q119 95 169 95 Q234 95 279 121 Q324 147 334 189 Q344 230 327.5 263.5 Q311 297 240 350 Q190 387 169 409 Q148 431 135 455 Q119 486 116 522.5 Q113 559 124 602 Q144 681 219.5 727.5 Q295 774 407 774 Q457 774 497.5 764.5 Q538 755 568 737 L535 611 Q513 636 471.5 650.5 Q430 665 381 665 Q326 665 289 644 Q252 623 243 587 Q232 546 248.5 513 Q265 480 336 428 Q386 392 407.5 370 Q429 348 441 325 Q458 294 461.5 258 Q465 222 455 180 Z " />
<glyph glyph-name="Scircumflex" unicode="&#x15c;" horiz-adv-x="570" d="M443 933 L275 817 L233 882 L417 1031 L502 1031 L608 871 L542 817 L443 933 Z M455 180 Q434 91 352.5 40 Q271 -11 148 -11 Q93 -11 49 -1.5 Q5 8 -34 29 L-2 149 Q29 123 74 109 Q119 95 169 95 Q234 95 279 121 Q324 147 334 189 Q344 230 327.5 263.5 Q311 297 240 350 Q190 387 169 409 Q148 431 135 455 Q119 486 116 522.5 Q113 559 124 602 Q144 681 219.5 727.5 Q295 774 407 774 Q457 774 497.5 764.5 Q538 755 568 737 L535 611 Q513 636 471.5 650.5 Q430 665 381 665 Q326 665 289 644 Q252 623 243 587 Q232 546 248.5 513 Q265 480 336 428 Q386 392 407.5 370 Q429 348 441 325 Q458 294 461.5 258 Q465 222 455 180 Z " />
<glyph glyph-name="Scedilla" unicode="&#x15e;" horiz-adv-x="570" d="M288 -56 Q272 -115 226.5 -147 Q181 -179 120 -179 Q102 -179 86.5 -177 Q71 -175 58 -171 Q64 -148 70.5 -125 Q77 -102 83 -79 Q94 -83 106 -85 Q118 -87 130 -87 Q152 -87 168.5 -76 Q185 -65 190 -46 Q193 -36 192.5 -26.5 Q192 -17 189 -9 Q179 -10 168.5 -10.5 Q158 -11 148 -11 Q93 -11 49 -1.5 Q5 8 -34 29 L-2 149 Q29 123 74 109 Q119 95 169 95 Q234 95 279 121 Q324 147 334 189 Q344 230 327.5 263.5 Q311 297 240 350 Q190 387 169 409 Q148 431 135 455 Q119 486 116 522.5 Q113 559 124 602 Q144 681 219.5 727.5 Q295 774 407 774 Q457 774 497.5 764.5 Q538 755 568 737 L535 611 Q513 636 471.5 650.5 Q430 665 381 665 Q326 665 289 644 Q252 623 243 587 Q232 546 248.5 513 Q265 480 336 428 Q386 392 407.5 370 Q429 348 441 325 Q458 294 461.5 258 Q465 222 455 180 Q440 118 395.5 73.5 Q351 29 283 8 Q290 -7 291.5 -23.5 Q293 -40 288 -56 Z " />
<glyph glyph-name="Scaron" unicode="&#x160;" horiz-adv-x="570" d="M423 916 L591 1032 L633 967 L449 818 L364 818 L258 978 L324 1032 L423 916 Z M455 180 Q434 91 352.5 40 Q271 -11 148 -11 Q93 -11 49 -1.5 Q5 8 -34 29 L-2 149 Q29 123 74 109 Q119 95 169 95 Q234 95 279 121 Q324 147 334 189 Q344 230 327.5 263.5 Q311 297 240 350 Q190 387 169 409 Q148 431 135 455 Q119 486 116 522.5 Q113 559 124 602 Q144 681 219.5 727.5 Q295 774 407 774 Q457 774 497.5 764.5 Q538 755 568 737 L535 611 Q513 636 471.5 650.5 Q430 665 381 665 Q326 665 289 644 Q252 623 243 587 Q232 546 248.5 513 Q265 480 336 428 Q386 392 407.5 370 Q429 348 441 325 Q458 294 461.5 258 Q465 222 455 180 Z " />
<glyph glyph-name="Scommaaccent" unicode="&#x218;" horiz-adv-x="570" d="M455 180 Q434 91 352.5 40 Q271 -11 148 -11 Q93 -11 49 -1.5 Q5 8 -34 29 L-2 149 Q29 123 74 109 Q119 95 169 95 Q234 95 279 121 Q324 147 334 189 Q344 230 327.5 263.5 Q311 297 240 350 Q190 387 169 409 Q148 431 135 455 Q119 486 116 522.5 Q113 559 124 602 Q144 681 219.5 727.5 Q295 774 407 774 Q457 774 497.5 764.5 Q538 755 568 737 L535 611 Q513 636 471.5 650.5 Q430 665 381 665 Q326 665 289 644 Q252 623 243 587 Q232 546 248.5 513 Q265 480 336 428 Q386 392 407.5 370 Q429 348 441 325 Q458 294 461.5 258 Q465 222 455 180 Z M272 -134 L87 -251 L45 -191 L197 -53 L272 -134 Z " />
<glyph glyph-name="germandbls.cap" unicode="&#xe0d1;" horiz-adv-x="1121" d="M455 180 Q434 91 352.5 40 Q271 -11 148 -11 Q93 -11 49 -1.5 Q5 8 -34 29 L-2 149 Q29 123 74 109 Q119 95 169 95 Q234 95 279 121 Q324 147 334 189 Q344 230 327.5 263.5 Q311 297 240 350 Q190 387 169 409 Q148 431 135 455 Q119 486 116 522.5 Q113 559 124 602 Q144 681 219.5 727.5 Q295 774 407 774 Q457 774 497.5 764.5 Q538 755 568 737 L535 611 Q513 636 471.5 650.5 Q430 665 381 665 Q326 665 289 644 Q252 623 243 587 Q232 546 248.5 513 Q265 480 336 428 Q386 392 407.5 370 Q429 348 441 325 Q458 294 461.5 258 Q465 222 455 180 Z M1006 180 Q985 91 903.5 40 Q822 -11 699 -11 Q644 -11 600 -1.5 Q556 8 517 29 L549 149 Q580 123 625 109 Q670 95 720 95 Q785 95 830 121 Q875 147 885 189 Q895 230 878.5 263.5 Q862 297 791 350 Q741 387 720 409 Q699 431 686 455 Q670 486 667 522.5 Q664 559 675 602 Q695 681 770.5 727.5 Q846 774 958 774 Q1008 774 1048.5 764.5 Q1089 755 1119 737 L1086 611 Q1064 636 1022.5 650.5 Q981 665 932 665 Q877 665 840 644 Q803 623 794 587 Q783 546 799.5 513 Q816 480 887 428 Q937 392 958.5 370 Q980 348 992 325 Q1009 294 1012.5 258 Q1016 222 1006 180 Z " />
<glyph glyph-name="T" unicode="T" horiz-adv-x="550" d="M408 654 L233 0 L113 0 L288 654 L83 654 L112 763 L642 763 L613 654 L408 654 Z " />
<glyph glyph-name="Tcommaaccent" unicode="&#x162;" horiz-adv-x="550" d="M408 654 L233 0 L113 0 L288 654 L83 654 L112 763 L642 763 L613 654 L408 654 Z M243 -134 L58 -251 L16 -191 L168 -53 L243 -134 Z " />
<glyph glyph-name="Tcaron" unicode="&#x164;" horiz-adv-x="550" d="M413 916 L581 1032 L623 967 L439 818 L354 818 L248 978 L314 1032 L413 916 Z M408 654 L233 0 L113 0 L288 654 L83 654 L112 763 L642 763 L613 654 L408 654 Z " />
<glyph glyph-name="uni021A" unicode="&#x21a;" horiz-adv-x="550" d="M408 654 L233 0 L113 0 L288 654 L83 654 L112 763 L642 763 L613 654 L408 654 Z M243 -134 L58 -251 L16 -191 L168 -53 L243 -134 Z " />
<glyph glyph-name="Tbar" unicode="&#x166;" horiz-adv-x="550" d="M545 339 L324 339 L233 0 L113 0 L204 339 L15 339 L44 448 L233 448 L288 654 L83 654 L112 763 L642 763 L613 654 L408 654 L353 448 L574 448 L545 339 Z " />
<glyph glyph-name="U" unicode="U" horiz-adv-x="762" d="M555 99 Q509 41 443.5 14.5 Q378 -12 286 -11 Q138 -8 87.5 87 Q37 182 87 368 L192 763 L313 763 L210 377 Q170 227 191 164 Q212 101 307 100 Q369 100 411 120 Q453 140 481 185 Q498 212 512.5 251 Q527 290 550 377 L653 763 L774 763 L672 377 Q643 270 616 206 Q589 142 555 99 Z " />
<glyph glyph-name="Ugrave" unicode="&#xd9;" horiz-adv-x="762" d="M251 952 L325 1046 L526 886 L472 825 L251 952 Z M555 99 Q509 41 443.5 14.5 Q378 -12 286 -11 Q138 -8 87.5 87 Q37 182 87 368 L192 763 L313 763 L210 377 Q170 227 191 164 Q212 101 307 100 Q369 100 411 120 Q453 140 481 185 Q498 212 512.5 251 Q527 290 550 377 L653 763 L774 763 L672 377 Q643 270 616 206 Q589 142 555 99 Z " />
<glyph glyph-name="Uacute" unicode="&#xda;" horiz-adv-x="762" d="M753 948 L488 825 L459 894 L701 1049 L753 948 Z M555 99 Q509 41 443.5 14.5 Q378 -12 286 -11 Q138 -8 87.5 87 Q37 182 87 368 L192 763 L313 763 L210 377 Q170 227 191 164 Q212 101 307 100 Q369 100 411 120 Q453 140 481 185 Q498 212 512.5 251 Q527 290 550 377 L653 763 L774 763 L672 377 Q643 270 616 206 Q589 142 555 99 Z " />
<glyph glyph-name="Ucircumflex" unicode="&#xdb;" horiz-adv-x="762" d="M539 933 L371 817 L329 882 L513 1031 L598 1031 L704 871 L638 817 L539 933 Z M555 99 Q509 41 443.5 14.5 Q378 -12 286 -11 Q138 -8 87.5 87 Q37 182 87 368 L192 763 L313 763 L210 377 Q170 227 191 164 Q212 101 307 100 Q369 100 411 120 Q453 140 481 185 Q498 212 512.5 251 Q527 290 550 377 L653 763 L774 763 L672 377 Q643 270 616 206 Q589 142 555 99 Z " />
<glyph glyph-name="Udieresis" unicode="&#xdc;" horiz-adv-x="762" d="M734 941 Q725 908 697 885.5 Q669 863 635 863 Q602 863 585.5 885.5 Q569 908 578 941 Q587 974 615.5 996.5 Q644 1019 677 1019 Q710 1019 726.5 996.5 Q743 974 734 941 Z M484 941 Q475 908 447 885.5 Q419 863 385 863 Q352 863 335.5 885.5 Q319 908 328 941 Q337 974 365.5 996.5 Q394 1019 427 1019 Q460 1019 476.5 996.5 Q493 974 484 941 Z M555 99 Q509 41 443.5 14.5 Q378 -12 286 -11 Q138 -8 87.5 87 Q37 182 87 368 L192 763 L313 763 L210 377 Q170 227 191 164 Q212 101 307 100 Q369 100 411 120 Q453 140 481 185 Q498 212 512.5 251 Q527 290 550 377 L653 763 L774 763 L672 377 Q643 270 616 206 Q589 142 555 99 Z " />
<glyph glyph-name="Utilde" unicode="&#x168;" horiz-adv-x="762" d="M711 998 Q699 920 670 884.5 Q641 849 588 849 Q571 849 552.5 856 Q534 863 503 884 Q482 898 473 902 Q464 906 457 906 Q443 906 434 891.5 Q425 877 420 847 L341 847 Q353 925 382 960.5 Q411 996 463 996 Q482 996 501.5 989 Q521 982 553 961 Q572 948 580.5 944.5 Q589 941 596 941 Q610 941 619 955 Q628 969 632 998 L711 998 Z M555 99 Q509 41 443.5 14.5 Q378 -12 286 -11 Q138 -8 87.5 87 Q37 182 87 368 L192 763 L313 763 L210 377 Q170 227 191 164 Q212 101 307 100 Q369 100 411 120 Q453 140 481 185 Q498 212 512.5 251 Q527 290 550 377 L653 763 L774 763 L672 377 Q643 270 616 206 Q589 142 555 99 Z " />
<glyph glyph-name="Umacron" unicode="&#x16a;" horiz-adv-x="762" d="M721 975 L697 883 L335 883 L359 975 L721 975 Z M555 99 Q509 41 443.5 14.5 Q378 -12 286 -11 Q138 -8 87.5 87 Q37 182 87 368 L192 763 L313 763 L210 377 Q170 227 191 164 Q212 101 307 100 Q369 100 411 120 Q453 140 481 185 Q498 212 512.5 251 Q527 290 550 377 L653 763 L774 763 L672 377 Q643 270 616 206 Q589 142 555 99 Z " />
<glyph glyph-name="Ubreve" unicode="&#x16c;" horiz-adv-x="762" d="M728 1004 Q708 920 650 871.5 Q592 823 508 823 Q425 823 386.5 875 Q348 927 368 1004 L451 1004 Q442 962 460.5 937.5 Q479 913 523 913 Q568 913 600 937.5 Q632 962 645 1004 L728 1004 Z M555 99 Q509 41 443.5 14.5 Q378 -12 286 -11 Q138 -8 87.5 87 Q37 182 87 368 L192 763 L313 763 L210 377 Q170 227 191 164 Q212 101 307 100 Q369 100 411 120 Q453 140 481 185 Q498 212 512.5 251 Q527 290 550 377 L653 763 L774 763 L672 377 Q643 270 616 206 Q589 142 555 99 Z " />
<glyph glyph-name="Uring" unicode="&#x16e;" horiz-adv-x="762" d="M554 1044 Q629 1043 666.5 1005 Q704 967 689 913 Q674 861 623 831 Q572 801 500 802 Q424 803 386.5 840.5 Q349 878 364 932 Q379 985 430 1015 Q481 1045 554 1044 Z M531 969 Q500 969 479.5 958 Q459 947 454 929 Q448 905 465 891 Q482 877 519 877 Q551 877 573 888 Q595 899 599 916 Q605 940 587 954.5 Q569 969 531 969 Z M555 99 Q509 41 443.5 14.5 Q378 -12 286 -11 Q138 -8 87.5 87 Q37 182 87 368 L192 763 L313 763 L210 377 Q170 227 191 164 Q212 101 307 100 Q369 100 411 120 Q453 140 481 185 Q498 212 512.5 251 Q527 290 550 377 L653 763 L774 763 L672 377 Q643 270 616 206 Q589 142 555 99 Z " />
<glyph glyph-name="Uhungarumlaut" unicode="&#x170;" horiz-adv-x="762" d="M614 969 L355 810 L319 874 L547 1058 L614 969 Z M850 927 L577 810 L557 883 L805 1031 L850 927 Z M555 99 Q509 41 443.5 14.5 Q378 -12 286 -11 Q138 -8 87.5 87 Q37 182 87 368 L192 763 L313 763 L210 377 Q170 227 191 164 Q212 101 307 100 Q369 100 411 120 Q453 140 481 185 Q498 212 512.5 251 Q527 290 550 377 L653 763 L774 763 L672 377 Q643 270 616 206 Q589 142 555 99 Z " />
<glyph glyph-name="Uogonek" unicode="&#x172;" horiz-adv-x="762" d="M323 -214 Q303 -225 279.5 -230.5 Q256 -236 234 -235 Q191 -233 169 -204.5 Q147 -176 156 -135 Q163 -100 186 -71 Q209 -42 255 -9 Q125 3 82.5 97.5 Q40 192 87 368 L192 763 L313 763 L210 377 Q170 227 191 164 Q212 101 307 100 Q369 100 411 120 Q453 140 481 185 Q498 212 512.5 251 Q527 290 550 377 L653 763 L774 763 L672 377 Q643 270 616 206 Q589 142 555 99 Q520 55 475 29.5 Q430 4 371 -5 Q330 -28 300.5 -58.5 Q271 -89 267 -113 Q265 -130 272.5 -138.5 Q280 -147 297 -147 Q308 -147 320.5 -143.5 Q333 -140 344 -134 L323 -214 Z " />
<glyph glyph-name="V" unicode="V" horiz-adv-x="685" d="M757 763 L313 0 L170 0 L132 763 L255 763 L271 128 L274 128 L628 763 L757 763 Z " />
<glyph glyph-name="W" unicode="W" horiz-adv-x="1015" d="M564 596 L262 0 L113 0 L152 763 L274 763 L248 390 Q245 350 242 311.5 Q239 273 232 214 Q230 185 228.5 171.5 Q227 158 226 147 L229 147 Q237 163 247 183 Q257 203 279 248 Q304 298 319.5 329 Q335 360 350 390 L538 763 L677 763 L669 391 Q668 359 666.5 324 Q665 289 662 227 Q660 192 659 176 Q658 160 658 147 L661 147 Q680 189 707.5 249.5 Q735 310 772 392 L940 763 L1067 763 L698 0 L549 0 L567 596 L564 596 Z " />
<glyph glyph-name="Wcircumflex" unicode="&#x174;" horiz-adv-x="1015" d="M665 933 L497 817 L455 882 L639 1031 L724 1031 L830 871 L764 817 L665 933 Z M564 596 L262 0 L113 0 L152 763 L274 763 L248 390 Q245 350 242 311.5 Q239 273 232 214 Q230 185 228.5 171.5 Q227 158 226 147 L229 147 Q237 163 247 183 Q257 203 279 248 Q304 298 319.5 329 Q335 360 350 390 L538 763 L677 763 L669 391 Q668 359 666.5 324 Q665 289 662 227 Q660 192 659 176 Q658 160 658 147 L661 147 Q680 189 707.5 249.5 Q735 310 772 392 L940 763 L1067 763 L698 0 L549 0 L567 596 L564 596 Z " />
<glyph glyph-name="Wgrave" unicode="&#x1e80;" horiz-adv-x="1015" d="M385 952 L459 1046 L660 886 L606 825 L385 952 Z M564 596 L262 0 L113 0 L152 763 L274 763 L248 390 Q245 350 242 311.5 Q239 273 232 214 Q230 185 228.5 171.5 Q227 158 226 147 L229 147 Q237 163 247 183 Q257 203 279 248 Q304 298 319.5 329 Q335 360 350 390 L538 763 L677 763 L669 391 Q668 359 666.5 324 Q665 289 662 227 Q660 192 659 176 Q658 160 658 147 L661 147 Q680 189 707.5 249.5 Q735 310 772 392 L940 763 L1067 763 L698 0 L549 0 L567 596 L564 596 Z " />
<glyph glyph-name="Wacute" unicode="&#x1e82;" horiz-adv-x="1015" d="M864 948 L599 825 L570 894 L812 1049 L864 948 Z M564 596 L262 0 L113 0 L152 763 L274 763 L248 390 Q245 350 242 311.5 Q239 273 232 214 Q230 185 228.5 171.5 Q227 158 226 147 L229 147 Q237 163 247 183 Q257 203 279 248 Q304 298 319.5 329 Q335 360 350 390 L538 763 L677 763 L669 391 Q668 359 666.5 324 Q665 289 662 227 Q660 192 659 176 Q658 160 658 147 L661 147 Q680 189 707.5 249.5 Q735 310 772 392 L940 763 L1067 763 L698 0 L549 0 L567 596 L564 596 Z " />
<glyph glyph-name="Wdieresis" unicode="&#x1e84;" horiz-adv-x="1015" d="M860 941 Q851 908 823 885.5 Q795 863 761 863 Q728 863 711.5 885.5 Q695 908 704 941 Q713 974 741.5 996.5 Q770 1019 803 1019 Q836 1019 852.5 996.5 Q869 974 860 941 Z M610 941 Q601 908 573 885.5 Q545 863 511 863 Q478 863 461.5 885.5 Q445 908 454 941 Q463 974 491.5 996.5 Q520 1019 553 1019 Q586 1019 602.5 996.5 Q619 974 610 941 Z M564 596 L262 0 L113 0 L152 763 L274 763 L248 390 Q245 350 242 311.5 Q239 273 232 214 Q230 185 228.5 171.5 Q227 158 226 147 L229 147 Q237 163 247 183 Q257 203 279 248 Q304 298 319.5 329 Q335 360 350 390 L538 763 L677 763 L669 391 Q668 359 666.5 324 Q665 289 662 227 Q660 192 659 176 Q658 160 658 147 L661 147 Q680 189 707.5 249.5 Q735 310 772 392 L940 763 L1067 763 L698 0 L549 0 L567 596 L564 596 Z " />
<glyph glyph-name="X" unicode="X" horiz-adv-x="644" d="M291 288 L64 0 L-82 0 L259 404 L126 763 L264 763 L355 492 L358 492 L572 763 L713 763 L391 376 L527 0 L387 0 L293 288 L291 288 Z " />
<glyph glyph-name="Y" unicode="Y" horiz-adv-x="625" d="M364 348 L271 0 L151 0 L244 348 L96 763 L223 763 L304 525 Q310 507 315 488.5 Q320 470 323 451 L326 451 Q338 470 351 488 Q364 506 377 522 L576 763 L721 763 L364 348 Z " />
<glyph glyph-name="Yacute" unicode="&#xdd;" horiz-adv-x="625" d="M691 948 L426 825 L397 894 L639 1049 L691 948 Z M364 348 L271 0 L151 0 L244 348 L96 763 L223 763 L304 525 Q310 507 315 488.5 Q320 470 323 451 L326 451 Q338 470 351 488 Q364 506 377 522 L576 763 L721 763 L364 348 Z " />
<glyph glyph-name="Ycircumflex" unicode="&#x176;" horiz-adv-x="625" d="M470 933 L302 817 L260 882 L444 1031 L529 1031 L635 871 L569 817 L470 933 Z M364 348 L271 0 L151 0 L244 348 L96 763 L223 763 L304 525 Q310 507 315 488.5 Q320 470 323 451 L326 451 Q338 470 351 488 Q364 506 377 522 L576 763 L721 763 L364 348 Z " />
<glyph glyph-name="Ydieresis" unicode="&#x178;" horiz-adv-x="625" d="M665 941 Q656 908 628 885.5 Q600 863 566 863 Q533 863 516.5 885.5 Q500 908 509 941 Q518 974 546.5 996.5 Q575 1019 608 1019 Q641 1019 657.5 996.5 Q674 974 665 941 Z M415 941 Q406 908 378 885.5 Q350 863 316 863 Q283 863 266.5 885.5 Q250 908 259 941 Q268 974 296.5 996.5 Q325 1019 358 1019 Q391 1019 407.5 996.5 Q424 974 415 941 Z M364 348 L271 0 L151 0 L244 348 L96 763 L223 763 L304 525 Q310 507 315 488.5 Q320 470 323 451 L326 451 Q338 470 351 488 Q364 506 377 522 L576 763 L721 763 L364 348 Z " />
<glyph glyph-name="Ygrave" unicode="&#x1ef2;" horiz-adv-x="625" d="M199 952 L273 1046 L474 886 L420 825 L199 952 Z M364 348 L271 0 L151 0 L244 348 L96 763 L223 763 L304 525 Q310 507 315 488.5 Q320 470 323 451 L326 451 Q338 470 351 488 Q364 506 377 522 L576 763 L721 763 L364 348 Z " />
<glyph glyph-name="Z" unicode="Z" horiz-adv-x="618" d="M485 109 L456 0 L-42 0 L-15 102 L471 651 L469 654 L143 654 L172 763 L650 763 L622 660 L137 112 L139 109 L485 109 Z " />
<glyph glyph-name="Zacute" unicode="&#x179;" horiz-adv-x="618" d="M663 948 L398 825 L369 894 L611 1049 L663 948 Z M485 109 L456 0 L-42 0 L-15 102 L471 651 L469 654 L143 654 L172 763 L650 763 L622 660 L137 112 L139 109 L485 109 Z " />
<glyph glyph-name="Zdotaccent" unicode="&#x17b;" horiz-adv-x="618" d="M537 941 Q528 908 500 885.5 Q472 863 438 863 Q405 863 388.5 885.5 Q372 908 381 941 Q390 974 418.5 996.5 Q447 1019 480 1019 Q513 1019 529.5 996.5 Q546 974 537 941 Z M485 109 L456 0 L-42 0 L-15 102 L471 651 L469 654 L143 654 L172 763 L650 763 L622 660 L137 112 L139 109 L485 109 Z " />
<glyph glyph-name="Zcaron" unicode="&#x17d;" horiz-adv-x="618" d="M447 916 L615 1032 L657 967 L473 818 L388 818 L282 978 L348 1032 L447 916 Z M485 109 L456 0 L-42 0 L-15 102 L471 651 L469 654 L143 654 L172 763 L650 763 L622 660 L137 112 L139 109 L485 109 Z " />
<glyph glyph-name="Schwa" unicode="&#x18f;" horiz-adv-x="713" d="M166 730 Q227 752 283 762.5 Q339 773 395 773 Q563 773 629 656.5 Q695 540 640 331 Q601 181 486.5 85 Q372 -11 223 -11 Q98 -11 40 76.5 Q-18 164 18 297 Q26 329 39 364 Q52 399 71 441 L550 441 Q567 552 520 608 Q473 664 363 664 Q314 664 254.5 651.5 Q195 639 135 617 L166 730 Z M120 274 Q98 196 133 147 Q168 98 248 98 Q346 98 416.5 158 Q487 218 525 334 L140 334 Q136 324 130.5 307.5 Q125 291 120 274 Z " />
<glyph glyph-name="a" unicode="a" horiz-adv-x="566" d="M296 51 Q265 23 222.5 6 Q180 -11 137 -11 Q66 -11 28.5 35.5 Q-9 82 1 156 Q13 242 82 286.5 Q151 331 274 331 L360 331 Q361 334 362.5 338 Q364 342 366 352 Q381 409 357 432.5 Q333 456 264 456 Q220 456 176.5 447.5 Q133 439 93 422 L123 532 Q162 544 205 550 Q248 556 295 556 Q425 556 462 494 Q499 432 460 286 L383 0 L302 0 L298 50 L296 51 Z M273 248 Q199 248 160 227.5 Q121 207 114 164 Q107 125 124 103.5 Q141 82 178 82 Q217 82 257.5 99.5 Q298 117 318 141 L346 248 L273 248 Z " />
<glyph glyph-name="agrave" unicode="&#xe0;" horiz-adv-x="566" d="M254 897 L395 702 L339 647 L163 824 L254 897 Z M296 51 Q265 23 222.5 6 Q180 -11 137 -11 Q66 -11 28.5 35.5 Q-9 82 1 156 Q13 242 82 286.5 Q151 331 274 331 L360 331 Q361 334 362.5 338 Q364 342 366 352 Q381 409 357 432.5 Q333 456 264 456 Q220 456 176.5 447.5 Q133 439 93 422 L123 532 Q162 544 205 550 Q248 556 295 556 Q425 556 462 494 Q499 432 460 286 L383 0 L302 0 L298 50 L296 51 Z M273 248 Q199 248 160 227.5 Q121 207 114 164 Q107 125 124 103.5 Q141 82 178 82 Q217 82 257.5 99.5 Q298 117 318 141 L346 248 L273 248 Z " />
<glyph glyph-name="aacute" unicode="&#xe1;" horiz-adv-x="566" d="M570 822 L325 646 L278 706 L491 903 L570 822 Z M296 51 Q265 23 222.5 6 Q180 -11 137 -11 Q66 -11 28.5 35.5 Q-9 82 1 156 Q13 242 82 286.5 Q151 331 274 331 L360 331 Q361 334 362.5 338 Q364 342 366 352 Q381 409 357 432.5 Q333 456 264 456 Q220 456 176.5 447.5 Q133 439 93 422 L123 532 Q162 544 205 550 Q248 556 295 556 Q425 556 462 494 Q499 432 460 286 L383 0 L302 0 L298 50 L296 51 Z M273 248 Q199 248 160 227.5 Q121 207 114 164 Q107 125 124 103.5 Q141 82 178 82 Q217 82 257.5 99.5 Q298 117 318 141 L346 248 L273 248 Z " />
<glyph glyph-name="acircumflex" unicode="&#xe2;" horiz-adv-x="566" d="M370 760 L232 637 L179 688 L347 863 L432 863 L509 682 L435 637 L370 760 Z M296 51 Q265 23 222.5 6 Q180 -11 137 -11 Q66 -11 28.5 35.5 Q-9 82 1 156 Q13 242 82 286.5 Q151 331 274 331 L360 331 Q361 334 362.5 338 Q364 342 366 352 Q381 409 357 432.5 Q333 456 264 456 Q220 456 176.5 447.5 Q133 439 93 422 L123 532 Q162 544 205 550 Q248 556 295 556 Q425 556 462 494 Q499 432 460 286 L383 0 L302 0 L298 50 L296 51 Z M273 248 Q199 248 160 227.5 Q121 207 114 164 Q107 125 124 103.5 Q141 82 178 82 Q217 82 257.5 99.5 Q298 117 318 141 L346 248 L273 248 Z " />
<glyph glyph-name="atilde" unicode="&#xe3;" horiz-adv-x="566" d="M549 839 Q534 746 495.5 700.5 Q457 655 401 663 Q385 665 370.5 675.5 Q356 686 337 713 Q324 730 317.5 735.5 Q311 741 305 741 Q291 742 279 723 Q267 704 256 665 L174 665 Q189 757 228 802 Q267 847 322 839 Q339 837 353.5 826.5 Q368 816 388 789 Q400 772 406 767 Q412 762 418 762 Q432 761 444 780 Q456 799 467 839 L549 839 Z M296 51 Q265 23 222.5 6 Q180 -11 137 -11 Q66 -11 28.5 35.5 Q-9 82 1 156 Q13 242 82 286.5 Q151 331 274 331 L360 331 Q361 334 362.5 338 Q364 342 366 352 Q381 409 357 432.5 Q333 456 264 456 Q220 456 176.5 447.5 Q133 439 93 422 L123 532 Q162 544 205 550 Q248 556 295 556 Q425 556 462 494 Q499 432 460 286 L383 0 L302 0 L298 50 L296 51 Z M273 248 Q199 248 160 227.5 Q121 207 114 164 Q107 125 124 103.5 Q141 82 178 82 Q217 82 257.5 99.5 Q298 117 318 141 L346 248 L273 248 Z " />
<glyph glyph-name="adieresis" unicode="&#xe4;" horiz-adv-x="566" d="M486 852 Q519 852 535.5 829.5 Q552 807 543 774 Q534 741 506 718.5 Q478 696 444 696 Q411 696 394.5 718.5 Q378 741 387 774 Q396 807 424.5 829.5 Q453 852 486 852 Z M266 852 Q299 852 315.5 829.5 Q332 807 323 774 Q314 741 286 718.5 Q258 696 224 696 Q191 696 174.5 718.5 Q158 741 167 774 Q176 807 204.5 829.5 Q233 852 266 852 Z M296 51 Q265 23 222.5 6 Q180 -11 137 -11 Q66 -11 28.5 35.5 Q-9 82 1 156 Q13 242 82 286.5 Q151 331 274 331 L360 331 Q361 334 362.5 338 Q364 342 366 352 Q381 409 357 432.5 Q333 456 264 456 Q220 456 176.5 447.5 Q133 439 93 422 L123 532 Q162 544 205 550 Q248 556 295 556 Q425 556 462 494 Q499 432 460 286 L383 0 L302 0 L298 50 L296 51 Z M273 248 Q199 248 160 227.5 Q121 207 114 164 Q107 125 124 103.5 Q141 82 178 82 Q217 82 257.5 99.5 Q298 117 318 141 L346 248 L273 248 Z " />
<glyph glyph-name="aring" unicode="&#xe5;" horiz-adv-x="566" d="M407 903 Q465 901 492.5 861.5 Q520 822 504 761 Q491 711 446.5 677.5 Q402 644 348 645 Q292 647 265.5 687 Q239 727 254 788 Q267 838 311 871.5 Q355 905 407 903 Z M391 829 Q367 830 347.5 814.5 Q328 799 324 774 Q320 750 331.5 735 Q343 720 367 719 Q391 718 410 734 Q429 750 434 774 Q439 798 427 813 Q415 828 391 829 Z M296 51 Q265 23 222.5 6 Q180 -11 137 -11 Q66 -11 28.5 35.5 Q-9 82 1 156 Q13 242 82 286.5 Q151 331 274 331 L360 331 Q361 334 362.5 338 Q364 342 366 352 Q381 409 357 432.5 Q333 456 264 456 Q220 456 176.5 447.5 Q133 439 93 422 L123 532 Q162 544 205 550 Q248 556 295 556 Q425 556 462 494 Q499 432 460 286 L383 0 L302 0 L298 50 L296 51 Z M273 248 Q199 248 160 227.5 Q121 207 114 164 Q107 125 124 103.5 Q141 82 178 82 Q217 82 257.5 99.5 Q298 117 318 141 L346 248 L273 248 Z " />
<glyph glyph-name="amacron" unicode="&#x101;" horiz-adv-x="566" d="M546 791 L521 699 L199 699 L224 791 L546 791 Z M296 51 Q265 23 222.5 6 Q180 -11 137 -11 Q66 -11 28.5 35.5 Q-9 82 1 156 Q13 242 82 286.5 Q151 331 274 331 L360 331 Q361 334 362.5 338 Q364 342 366 352 Q381 409 357 432.5 Q333 456 264 456 Q220 456 176.5 447.5 Q133 439 93 422 L123 532 Q162 544 205 550 Q248 556 295 556 Q425 556 462 494 Q499 432 460 286 L383 0 L302 0 L298 50 L296 51 Z M273 248 Q199 248 160 227.5 Q121 207 114 164 Q107 125 124 103.5 Q141 82 178 82 Q217 82 257.5 99.5 Q298 117 318 141 L346 248 L273 248 Z " />
<glyph glyph-name="abreve" unicode="&#x103;" horiz-adv-x="566" d="M555 832 Q535 750 481 700.5 Q427 651 354 651 Q278 651 246 701.5 Q214 752 235 832 L318 832 Q308 790 321.5 765.5 Q335 741 370 741 Q406 741 432.5 765 Q459 789 472 832 L555 832 Z M296 51 Q265 23 222.5 6 Q180 -11 137 -11 Q66 -11 28.5 35.5 Q-9 82 1 156 Q13 242 82 286.5 Q151 331 274 331 L360 331 Q361 334 362.5 338 Q364 342 366 352 Q381 409 357 432.5 Q333 456 264 456 Q220 456 176.5 447.5 Q133 439 93 422 L123 532 Q162 544 205 550 Q248 556 295 556 Q425 556 462 494 Q499 432 460 286 L383 0 L302 0 L298 50 L296 51 Z M273 248 Q199 248 160 227.5 Q121 207 114 164 Q107 125 124 103.5 Q141 82 178 82 Q217 82 257.5 99.5 Q298 117 318 141 L346 248 L273 248 Z " />
<glyph glyph-name="aogonek" unicode="&#x105;" horiz-adv-x="566" d="M325 -214 Q305 -225 281.5 -230.5 Q258 -236 236 -235 Q193 -233 171 -204.5 Q149 -176 158 -135 Q166 -98 191.5 -67 Q217 -36 271 0 Q277 4 283 8 Q289 12 301 18 L298 50 L296 51 Q265 23 222.5 6 Q180 -11 137 -11 Q66 -11 28.5 35.5 Q-9 82 1 156 Q13 242 82 286.5 Q151 331 274 331 L360 331 Q361 334 362.5 338 Q364 342 366 352 Q381 409 357 432.5 Q333 456 264 456 Q220 456 176.5 447.5 Q133 439 93 422 L123 532 Q162 544 205 550 Q248 556 295 556 Q425 556 462 494 Q499 432 460 286 L383 0 Q339 -22 306 -55 Q273 -88 269 -113 Q267 -130 274.5 -138.5 Q282 -147 299 -147 Q310 -147 322.5 -143.5 Q335 -140 346 -134 L325 -214 Z M273 248 Q199 248 160 227.5 Q121 207 114 164 Q107 125 124 103.5 Q141 82 178 82 Q217 82 257.5 99.5 Q298 117 318 141 L346 248 L273 248 Z " />
<glyph glyph-name="aringacute" unicode="&#x1fb;" horiz-adv-x="566" d="M588 1022 L323 899 L294 968 L536 1123 L588 1022 Z M401 869 Q459 867 486.5 827.5 Q514 788 498 727 Q485 677 440.5 643.5 Q396 610 342 611 Q286 613 259.5 653 Q233 693 248 754 Q261 804 305 837.5 Q349 871 401 869 Z M385 795 Q361 796 341.5 780.5 Q322 765 318 740 Q314 716 325.5 701 Q337 686 361 685 Q385 684 404 700 Q423 716 428 740 Q433 764 421 779 Q409 794 385 795 Z M296 51 Q265 23 222.5 6 Q180 -11 137 -11 Q66 -11 28.5 35.5 Q-9 82 1 156 Q13 242 82 286.5 Q151 331 274 331 L360 331 Q361 334 362.5 338 Q364 342 366 352 Q381 409 357 432.5 Q333 456 264 456 Q220 456 176.5 447.5 Q133 439 93 422 L123 532 Q162 544 205 550 Q248 556 295 556 Q425 556 462 494 Q499 432 460 286 L383 0 L302 0 L298 50 L296 51 Z M273 248 Q199 248 160 227.5 Q121 207 114 164 Q107 125 124 103.5 Q141 82 178 82 Q217 82 257.5 99.5 Q298 117 318 141 L346 248 L273 248 Z " />
<glyph glyph-name="ae" unicode="&#xe6;" horiz-adv-x="878" d="M710 29 Q659 8 618 -1.5 Q577 -11 539 -11 Q473 -11 426 15 Q379 41 355 89 Q292 33 239 11 Q186 -11 132 -11 Q61 -11 23.5 35.5 Q-14 82 -4 156 Q8 240 75.5 281 Q143 322 269 322 L353 322 Q354 326 355.5 330.5 Q357 335 358 339 Q359 345 360 347.5 Q361 350 361 352 Q376 409 352 432.5 Q328 456 259 456 Q215 456 171.5 447.5 Q128 439 88 422 L118 532 Q157 544 200 550 Q243 556 290 556 Q358 556 399.5 540 Q441 524 459 491 Q500 525 550.5 541.5 Q601 558 657 556 Q782 551 814.5 458.5 Q847 366 776 234 L442 234 Q430 164 462.5 126 Q495 88 567 88 Q603 88 645 98.5 Q687 109 738 131 L710 29 Z M707 322 Q735 381 715.5 423.5 Q696 466 638 467 Q572 469 526 431.5 Q480 394 462 322 L707 322 Z M115 164 Q108 125 125 103.5 Q142 82 179 82 Q218 82 261.5 101.5 Q305 121 336 152 Q333 172 333 193 Q333 214 335 237 L274 237 Q196 237 159 220.5 Q122 204 115 164 Z " />
<glyph glyph-name="aeacute" unicode="&#x1fd;" horiz-adv-x="878" d="M771 822 L526 646 L479 706 L692 903 L771 822 Z M710 29 Q659 8 618 -1.5 Q577 -11 539 -11 Q473 -11 426 15 Q379 41 355 89 Q292 33 239 11 Q186 -11 132 -11 Q61 -11 23.5 35.5 Q-14 82 -4 156 Q8 240 75.5 281 Q143 322 269 322 L353 322 Q354 326 355.5 330.5 Q357 335 358 339 Q359 345 360 347.5 Q361 350 361 352 Q376 409 352 432.5 Q328 456 259 456 Q215 456 171.5 447.5 Q128 439 88 422 L118 532 Q157 544 200 550 Q243 556 290 556 Q358 556 399.5 540 Q441 524 459 491 Q500 525 550.5 541.5 Q601 558 657 556 Q782 551 814.5 458.5 Q847 366 776 234 L442 234 Q430 164 462.5 126 Q495 88 567 88 Q603 88 645 98.5 Q687 109 738 131 L710 29 Z M707 322 Q735 381 715.5 423.5 Q696 466 638 467 Q572 469 526 431.5 Q480 394 462 322 L707 322 Z M115 164 Q108 125 125 103.5 Q142 82 179 82 Q218 82 261.5 101.5 Q305 121 336 152 Q333 172 333 193 Q333 214 335 237 L274 237 Q196 237 159 220.5 Q122 204 115 164 Z " />
<glyph glyph-name="b" unicode="b" horiz-adv-x="602" d="M522 254 Q490 131 406.5 60 Q323 -11 212 -11 Q152 -11 101 1.5 Q50 14 -2 42 L199 791 L312 791 L238 514 L241 511 Q283 539 320.5 549 Q358 559 401 555 Q482 547 518 462 Q554 377 522 254 Z M129 111 Q149 98 174.5 93 Q200 88 236 90 Q295 94 340 139 Q385 184 406 261 Q429 344 412.5 393.5 Q396 443 345 449 Q307 454 267.5 439.5 Q228 425 207 401 L129 111 Z " />
<glyph glyph-name="c" unicode="c" horiz-adv-x="494" d="M356 26 Q317 7 275 -2.5 Q233 -12 192 -11 Q83 -7 38 79 Q-7 165 26 300 Q58 426 136.5 491 Q215 556 336 556 Q379 556 416 547.5 Q453 539 472 524 L443 416 Q420 435 389 445 Q358 455 323 455 Q250 455 203 412 Q156 369 136 282 Q116 194 140.5 144 Q165 94 229 90 Q265 88 309 100 Q353 112 384 131 L356 26 Z " />
<glyph glyph-name="ccedilla" unicode="&#xe7;" horiz-adv-x="494" d="M239 -56 Q223 -115 177.5 -147 Q132 -179 71 -179 Q53 -179 37.5 -177 Q22 -175 9 -171 Q15 -148 21.5 -125 Q28 -102 34 -79 Q45 -83 57 -85 Q69 -87 81 -87 Q103 -87 119.5 -76 Q136 -65 141 -46 Q144 -34 142.5 -22.5 Q141 -11 137 -2 Q57 21 27.5 102 Q-2 183 26 300 Q58 426 136.5 491 Q215 556 336 556 Q379 556 416 547.5 Q453 539 472 524 L443 416 Q420 435 389 445 Q358 455 323 455 Q250 455 203 412 Q156 369 136 282 Q116 194 140.5 144 Q165 94 229 90 Q265 88 309 100 Q353 112 384 131 L356 26 Q328 12 298.5 3.5 Q269 -5 240 -9 Q243 -20 242.5 -32 Q242 -44 239 -56 Z " />
<glyph glyph-name="cacute" unicode="&#x107;" horiz-adv-x="494" d="M613 822 L368 646 L321 706 L534 903 L613 822 Z M356 26 Q317 7 275 -2.5 Q233 -12 192 -11 Q83 -7 38 79 Q-7 165 26 300 Q58 426 136.5 491 Q215 556 336 556 Q379 556 416 547.5 Q453 539 472 524 L443 416 Q420 435 389 445 Q358 455 323 455 Q250 455 203 412 Q156 369 136 282 Q116 194 140.5 144 Q165 94 229 90 Q265 88 309 100 Q353 112 384 131 L356 26 Z " />
<glyph glyph-name="ccircumflex" unicode="&#x109;" horiz-adv-x="494" d="M405 760 L267 637 L214 688 L382 863 L467 863 L544 682 L470 637 L405 760 Z M356 26 Q317 7 275 -2.5 Q233 -12 192 -11 Q83 -7 38 79 Q-7 165 26 300 Q58 426 136.5 491 Q215 556 336 556 Q379 556 416 547.5 Q453 539 472 524 L443 416 Q420 435 389 445 Q358 455 323 455 Q250 455 203 412 Q156 369 136 282 Q116 194 140.5 144 Q165 94 229 90 Q265 88 309 100 Q353 112 384 131 L356 26 Z " />
<glyph glyph-name="cdotaccent" unicode="&#x10b;" horiz-adv-x="494" d="M477 751 Q468 718 440 695.5 Q412 673 378 673 Q345 673 328.5 695.5 Q312 718 321 751 Q330 784 358.5 806.5 Q387 829 420 829 Q453 829 469.5 806.5 Q486 784 477 751 Z M356 26 Q317 7 275 -2.5 Q233 -12 192 -11 Q83 -7 38 79 Q-7 165 26 300 Q58 426 136.5 491 Q215 556 336 556 Q379 556 416 547.5 Q453 539 472 524 L443 416 Q420 435 389 445 Q358 455 323 455 Q250 455 203 412 Q156 369 136 282 Q116 194 140.5 144 Q165 94 229 90 Q265 88 309 100 Q353 112 384 131 L356 26 Z " />
<glyph glyph-name="ccaron" unicode="&#x10d;" horiz-adv-x="494" d="M356 744 L494 867 L547 816 L379 641 L294 641 L217 822 L291 867 L356 744 Z M356 26 Q317 7 275 -2.5 Q233 -12 192 -11 Q83 -7 38 79 Q-7 165 26 300 Q58 426 136.5 491 Q215 556 336 556 Q379 556 416 547.5 Q453 539 472 524 L443 416 Q420 435 389 445 Q358 455 323 455 Q250 455 203 412 Q156 369 136 282 Q116 194 140.5 144 Q165 94 229 90 Q265 88 309 100 Q353 112 384 131 L356 26 Z " />
<glyph glyph-name="d" unicode="d" horiz-adv-x="602" d="M142 -9 Q62 4 26 88 Q-10 172 21 292 Q54 419 133 487.5 Q212 556 324 556 Q340 556 354.5 555 Q369 554 382 551 Q402 547 415.5 542 Q429 537 436 531 L440 534 L509 791 L622 791 L410 0 L297 0 L309 47 L307 48 Q274 14 231 -1 Q188 -16 142 -9 Z M412 429 Q400 441 372 448 Q344 455 307 455 Q247 455 203 411 Q159 367 137 285 Q115 205 132 155 Q149 105 198 98 Q235 93 274.5 108.5 Q314 124 338 151 L412 429 Z " />
<glyph glyph-name="dcaron" unicode="&#x10f;" horiz-adv-x="602" d="M878 880 L716 628 L643 653 L761 905 L878 880 Z M142 -9 Q62 4 26 88 Q-10 172 21 292 Q54 419 133 487.5 Q212 556 324 556 Q340 556 354.5 555 Q369 554 382 551 Q402 547 415.5 542 Q429 537 436 531 L440 534 L509 791 L622 791 L410 0 L297 0 L309 47 L307 48 Q274 14 231 -1 Q188 -16 142 -9 Z M412 429 Q400 441 372 448 Q344 455 307 455 Q247 455 203 411 Q159 367 137 285 Q115 205 132 155 Q149 105 198 98 Q235 93 274.5 108.5 Q314 124 338 151 L412 429 Z " />
<glyph glyph-name="dslash" unicode="&#x111;" horiz-adv-x="602" d="M307 48 Q274 14 231 -1 Q188 -16 142 -9 Q62 4 26 88 Q-10 172 21 292 Q54 419 133 487.5 Q212 556 324 556 Q340 556 354.5 555 Q369 554 382 551 Q402 547 415.5 542 Q429 537 436 531 L440 534 L461 614 L281 614 L307 710 L487 710 L509 791 L622 791 L600 710 L670 710 L644 614 L575 614 L410 0 L297 0 L309 47 L307 48 Z M412 429 Q400 441 372 448 Q344 455 307 455 Q247 455 203 411 Q159 367 137 285 Q115 205 132 155 Q149 105 198 98 Q235 93 274.5 108.5 Q314 124 338 151 L412 429 Z " />
<glyph glyph-name="eth" unicode="&#xf0;" horiz-adv-x="592" d="M519 295 Q482 157 391 73 Q300 -11 182 -11 Q71 -11 27.5 62 Q-16 135 17 258 Q49 378 128.5 451.5 Q208 525 309 525 Q339 525 367 518 Q395 511 418 498 Q408 534 389.5 567 Q371 600 344 629 L215 549 L180 612 L290 677 Q270 692 248 705.5 Q226 719 201 731 L290 807 Q318 792 343.5 775 Q369 758 391 739 L504 814 L543 749 L441 688 Q507 610 528 508.5 Q549 407 519 295 Z M132 262 Q110 180 132 135.5 Q154 91 217 91 Q281 91 327.5 136 Q374 181 396 262 Q419 346 397.5 390 Q376 434 312 434 Q247 434 201 389.5 Q155 345 132 262 Z " />
<glyph glyph-name="e" unicode="e" horiz-adv-x="559" d="M390 29 Q339 8 298 -1.5 Q257 -11 219 -11 Q104 -11 50 65 Q-4 141 20 269 Q45 407 132 484 Q219 561 337 556 Q462 551 494.5 456 Q527 361 456 229 L122 229 Q110 160 142 124 Q174 88 247 88 Q283 88 325 98.5 Q367 109 418 131 L390 29 Z M387 317 Q415 376 395.5 421 Q376 466 318 467 Q254 469 207.5 429.5 Q161 390 142 317 L387 317 Z " />
<glyph glyph-name="egrave" unicode="&#xe8;" horiz-adv-x="559" d="M270 897 L411 702 L355 647 L179 824 L270 897 Z M390 29 Q339 8 298 -1.5 Q257 -11 219 -11 Q104 -11 50 65 Q-4 141 20 269 Q45 407 132 484 Q219 561 337 556 Q462 551 494.5 456 Q527 361 456 229 L122 229 Q110 160 142 124 Q174 88 247 88 Q283 88 325 98.5 Q367 109 418 131 L390 29 Z M387 317 Q415 376 395.5 421 Q376 466 318 467 Q254 469 207.5 429.5 Q161 390 142 317 L387 317 Z " />
<glyph glyph-name="eacute" unicode="&#xe9;" horiz-adv-x="559" d="M605 822 L360 646 L313 706 L526 903 L605 822 Z M390 29 Q339 8 298 -1.5 Q257 -11 219 -11 Q104 -11 50 65 Q-4 141 20 269 Q45 407 132 484 Q219 561 337 556 Q462 551 494.5 456 Q527 361 456 229 L122 229 Q110 160 142 124 Q174 88 247 88 Q283 88 325 98.5 Q367 109 418 131 L390 29 Z M387 317 Q415 376 395.5 421 Q376 466 318 467 Q254 469 207.5 429.5 Q161 390 142 317 L387 317 Z " />
<glyph glyph-name="ecircumflex" unicode="&#xea;" horiz-adv-x="559" d="M399 759 L261 636 L208 687 L376 862 L461 862 L538 681 L464 636 L399 759 Z M390 29 Q339 8 298 -1.5 Q257 -11 219 -11 Q104 -11 50 65 Q-4 141 20 269 Q45 407 132 484 Q219 561 337 556 Q462 551 494.5 456 Q527 361 456 229 L122 229 Q110 160 142 124 Q174 88 247 88 Q283 88 325 98.5 Q367 109 418 131 L390 29 Z M387 317 Q415 376 395.5 421 Q376 466 318 467 Q254 469 207.5 429.5 Q161 390 142 317 L387 317 Z " />
<glyph glyph-name="edieresis" unicode="&#xeb;" horiz-adv-x="559" d="M525 852 Q558 852 574.5 829.5 Q591 807 582 774 Q573 741 545 718.5 Q517 696 483 696 Q450 696 433.5 718.5 Q417 741 426 774 Q435 807 463.5 829.5 Q492 852 525 852 Z M305 852 Q338 852 354.5 829.5 Q371 807 362 774 Q353 741 325 718.5 Q297 696 263 696 Q230 696 213.5 718.5 Q197 741 206 774 Q215 807 243.5 829.5 Q272 852 305 852 Z M390 29 Q339 8 298 -1.5 Q257 -11 219 -11 Q104 -11 50 65 Q-4 141 20 269 Q45 407 132 484 Q219 561 337 556 Q462 551 494.5 456 Q527 361 456 229 L122 229 Q110 160 142 124 Q174 88 247 88 Q283 88 325 98.5 Q367 109 418 131 L390 29 Z M387 317 Q415 376 395.5 421 Q376 466 318 467 Q254 469 207.5 429.5 Q161 390 142 317 L387 317 Z " />
<glyph glyph-name="emacron" unicode="&#x113;" horiz-adv-x="559" d="M572 791 L547 699 L225 699 L250 791 L572 791 Z M390 29 Q339 8 298 -1.5 Q257 -11 219 -11 Q104 -11 50 65 Q-4 141 20 269 Q45 407 132 484 Q219 561 337 556 Q462 551 494.5 456 Q527 361 456 229 L122 229 Q110 160 142 124 Q174 88 247 88 Q283 88 325 98.5 Q367 109 418 131 L390 29 Z M387 317 Q415 376 395.5 421 Q376 466 318 467 Q254 469 207.5 429.5 Q161 390 142 317 L387 317 Z " />
<glyph glyph-name="ebreve" unicode="&#x115;" horiz-adv-x="559" d="M570 832 Q550 750 496 700.5 Q442 651 369 651 Q293 651 261 701.5 Q229 752 250 832 L333 832 Q323 790 336.5 765.5 Q350 741 385 741 Q421 741 447.5 765 Q474 789 487 832 L570 832 Z M390 29 Q339 8 298 -1.5 Q257 -11 219 -11 Q104 -11 50 65 Q-4 141 20 269 Q45 407 132 484 Q219 561 337 556 Q462 551 494.5 456 Q527 361 456 229 L122 229 Q110 160 142 124 Q174 88 247 88 Q283 88 325 98.5 Q367 109 418 131 L390 29 Z M387 317 Q415 376 395.5 421 Q376 466 318 467 Q254 469 207.5 429.5 Q161 390 142 317 L387 317 Z " />
<glyph glyph-name="edotaccent" unicode="&#x117;" horiz-adv-x="559" d="M487 751 Q478 718 450 695.5 Q422 673 388 673 Q355 673 338.5 695.5 Q322 718 331 751 Q340 784 368.5 806.5 Q397 829 430 829 Q463 829 479.5 806.5 Q496 784 487 751 Z M390 29 Q339 8 298 -1.5 Q257 -11 219 -11 Q104 -11 50 65 Q-4 141 20 269 Q45 407 132 484 Q219 561 337 556 Q462 551 494.5 456 Q527 361 456 229 L122 229 Q110 160 142 124 Q174 88 247 88 Q283 88 325 98.5 Q367 109 418 131 L390 29 Z M387 317 Q415 376 395.5 421 Q376 466 318 467 Q254 469 207.5 429.5 Q161 390 142 317 L387 317 Z " />
<glyph glyph-name="eogonek" unicode="&#x119;" horiz-adv-x="559" d="M246 -214 Q226 -225 202.5 -230.5 Q179 -236 157 -235 Q114 -233 92 -204.5 Q70 -176 79 -135 Q87 -100 109.5 -70.5 Q132 -41 180 -8 Q84 4 41 78 Q-2 152 20 269 Q45 407 132 484 Q219 561 337 556 Q462 551 494.5 456 Q527 361 456 229 L122 229 Q110 160 142 124 Q174 88 247 88 Q283 88 325 98.5 Q367 109 418 131 L390 29 Q366 19 344.5 12 Q323 5 304 0 Q260 -22 227 -55 Q194 -88 190 -113 Q188 -130 195.5 -138.5 Q203 -147 220 -147 Q231 -147 243.5 -143.5 Q256 -140 267 -134 L246 -214 Z M387 317 Q415 376 395.5 421 Q376 466 318 467 Q254 469 207.5 429.5 Q161 390 142 317 L387 317 Z " />
<glyph glyph-name="ecaron" unicode="&#x11b;" horiz-adv-x="559" d="M374 744 L512 867 L565 816 L397 641 L312 641 L235 822 L309 867 L374 744 Z M390 29 Q339 8 298 -1.5 Q257 -11 219 -11 Q104 -11 50 65 Q-4 141 20 269 Q45 407 132 484 Q219 561 337 556 Q462 551 494.5 456 Q527 361 456 229 L122 229 Q110 160 142 124 Q174 88 247 88 Q283 88 325 98.5 Q367 109 418 131 L390 29 Z M387 317 Q415 376 395.5 421 Q376 466 318 467 Q254 469 207.5 429.5 Q161 390 142 317 L387 317 Z " />
<glyph glyph-name="f" unicode="f" horiz-adv-x="412" d="M252 450 L131 0 L19 0 L140 450 L58 450 L83 545 L165 545 Q205 685 265.5 743 Q326 801 431 801 Q462 801 488 797 Q514 793 539 784 L511 680 Q493 691 471.5 697 Q450 703 426 703 Q365 703 332.5 669 Q300 635 277 545 L422 545 L397 450 L252 450 Z " />
<glyph glyph-name="fi" unicode="&#xfb01;" horiz-adv-x="704" d="M744 751 Q735 718 707 695.5 Q679 673 645 673 Q612 673 595.5 695.5 Q579 718 588 751 Q597 784 625.5 806.5 Q654 829 687 829 Q720 829 736.5 806.5 Q753 784 744 751 Z M252 450 L131 0 L19 0 L140 450 L58 450 L83 545 L165 545 Q205 685 265.5 743 Q326 801 431 801 Q462 801 488 797 Q514 793 539 784 L511 680 Q493 691 471.5 697 Q450 703 426 703 Q365 703 332.5 669 Q300 635 277 545 L422 545 L397 450 L252 450 Z M657 545 L511 0 L399 0 L545 545 L657 545 Z " />
<glyph glyph-name="fl" unicode="&#xfb02;" horiz-adv-x="704" d="M252 450 L131 0 L19 0 L140 450 L58 450 L83 545 L165 545 Q205 685 265.5 743 Q326 801 431 801 Q462 801 488 797 Q514 793 539 784 L511 680 Q493 691 471.5 697 Q450 703 426 703 Q365 703 332.5 669 Q300 635 277 545 L422 545 L397 450 L252 450 Z M723 791 L511 0 L399 0 L611 791 L723 791 Z " />
<glyph glyph-name="g" unicode="g" horiz-adv-x="587" d="M-66 -85 Q-60 -54 -36.5 -24.5 Q-13 5 18 21 Q-1 32 -7 52 Q-13 72 -5 99 Q2 127 23.5 160.5 Q45 194 92 244 Q73 269 68 301.5 Q63 334 71 370 Q91 459 156 507.5 Q221 556 321 556 Q366 556 398.5 548 Q431 540 452 524 L585 556 L557 451 L499 451 Q510 340 441 262.5 Q372 185 252 184 Q218 184 193.5 188 Q169 192 148 201 Q124 171 117 158.5 Q110 146 107 133 Q100 109 111 100.5 Q122 92 165 92 L283 92 Q363 92 402.5 52 Q442 12 429 -55 Q411 -144 338 -189.5 Q265 -235 140 -235 Q29 -235 -24.5 -195.5 Q-78 -156 -66 -85 Z M387 370 Q398 416 376 440 Q354 464 299 464 Q251 464 220.5 440 Q190 416 179 370 Q169 326 192 300.5 Q215 275 266 276 Q315 277 346 301 Q377 325 387 370 Z M114 0 Q103 0 98 0 Q93 0 89 1 Q74 -12 63.5 -28.5 Q53 -45 49 -61 Q38 -100 66.5 -121.5 Q95 -143 160 -143 Q234 -143 273.5 -122.5 Q313 -102 320 -61 Q325 -31 302.5 -15.5 Q280 0 230 0 L114 0 Z " />
<glyph glyph-name="gcircumflex" unicode="&#x11d;" horiz-adv-x="587" d="M412 760 L274 637 L221 688 L389 863 L474 863 L551 682 L477 637 L412 760 Z M-66 -85 Q-60 -54 -36.5 -24.5 Q-13 5 18 21 Q-1 32 -7 52 Q-13 72 -5 99 Q2 127 23.5 160.5 Q45 194 92 244 Q73 269 68 301.5 Q63 334 71 370 Q91 459 156 507.5 Q221 556 321 556 Q366 556 398.5 548 Q431 540 452 524 L585 556 L557 451 L499 451 Q510 340 441 262.5 Q372 185 252 184 Q218 184 193.5 188 Q169 192 148 201 Q124 171 117 158.5 Q110 146 107 133 Q100 109 111 100.5 Q122 92 165 92 L283 92 Q363 92 402.5 52 Q442 12 429 -55 Q411 -144 338 -189.5 Q265 -235 140 -235 Q29 -235 -24.5 -195.5 Q-78 -156 -66 -85 Z M387 370 Q398 416 376 440 Q354 464 299 464 Q251 464 220.5 440 Q190 416 179 370 Q169 326 192 300.5 Q215 275 266 276 Q315 277 346 301 Q377 325 387 370 Z M114 0 Q103 0 98 0 Q93 0 89 1 Q74 -12 63.5 -28.5 Q53 -45 49 -61 Q38 -100 66.5 -121.5 Q95 -143 160 -143 Q234 -143 273.5 -122.5 Q313 -102 320 -61 Q325 -31 302.5 -15.5 Q280 0 230 0 L114 0 Z " />
<glyph glyph-name="gbreve" unicode="&#x11f;" horiz-adv-x="587" d="M583 832 Q563 750 509 700.5 Q455 651 382 651 Q306 651 274 701.5 Q242 752 263 832 L346 832 Q336 790 349.5 765.5 Q363 741 398 741 Q434 741 460.5 765 Q487 789 500 832 L583 832 Z M-66 -85 Q-60 -54 -36.5 -24.5 Q-13 5 18 21 Q-1 32 -7 52 Q-13 72 -5 99 Q2 127 23.5 160.5 Q45 194 92 244 Q73 269 68 301.5 Q63 334 71 370 Q91 459 156 507.5 Q221 556 321 556 Q366 556 398.5 548 Q431 540 452 524 L585 556 L557 451 L499 451 Q510 340 441 262.5 Q372 185 252 184 Q218 184 193.5 188 Q169 192 148 201 Q124 171 117 158.5 Q110 146 107 133 Q100 109 111 100.5 Q122 92 165 92 L283 92 Q363 92 402.5 52 Q442 12 429 -55 Q411 -144 338 -189.5 Q265 -235 140 -235 Q29 -235 -24.5 -195.5 Q-78 -156 -66 -85 Z M387 370 Q398 416 376 440 Q354 464 299 464 Q251 464 220.5 440 Q190 416 179 370 Q169 326 192 300.5 Q215 275 266 276 Q315 277 346 301 Q377 325 387 370 Z M114 0 Q103 0 98 0 Q93 0 89 1 Q74 -12 63.5 -28.5 Q53 -45 49 -61 Q38 -100 66.5 -121.5 Q95 -143 160 -143 Q234 -143 273.5 -122.5 Q313 -102 320 -61 Q325 -31 302.5 -15.5 Q280 0 230 0 L114 0 Z " />
<glyph glyph-name="gdotaccent" unicode="&#x121;" horiz-adv-x="587" d="M479 751 Q470 718 442 695.5 Q414 673 380 673 Q347 673 330.5 695.5 Q314 718 323 751 Q332 784 360.5 806.5 Q389 829 422 829 Q455 829 471.5 806.5 Q488 784 479 751 Z M-66 -85 Q-60 -54 -36.5 -24.5 Q-13 5 18 21 Q-1 32 -7 52 Q-13 72 -5 99 Q2 127 23.5 160.5 Q45 194 92 244 Q73 269 68 301.5 Q63 334 71 370 Q91 459 156 507.5 Q221 556 321 556 Q366 556 398.5 548 Q431 540 452 524 L585 556 L557 451 L499 451 Q510 340 441 262.5 Q372 185 252 184 Q218 184 193.5 188 Q169 192 148 201 Q124 171 117 158.5 Q110 146 107 133 Q100 109 111 100.5 Q122 92 165 92 L283 92 Q363 92 402.5 52 Q442 12 429 -55 Q411 -144 338 -189.5 Q265 -235 140 -235 Q29 -235 -24.5 -195.5 Q-78 -156 -66 -85 Z M387 370 Q398 416 376 440 Q354 464 299 464 Q251 464 220.5 440 Q190 416 179 370 Q169 326 192 300.5 Q215 275 266 276 Q315 277 346 301 Q377 325 387 370 Z M114 0 Q103 0 98 0 Q93 0 89 1 Q74 -12 63.5 -28.5 Q53 -45 49 -61 Q38 -100 66.5 -121.5 Q95 -143 160 -143 Q234 -143 273.5 -122.5 Q313 -102 320 -61 Q325 -31 302.5 -15.5 Q280 0 230 0 L114 0 Z " />
<glyph glyph-name="gcommaaccent" unicode="&#x123;" horiz-adv-x="587" d="M324 729 L569 905 L616 845 L403 648 L324 729 Z M-66 -85 Q-60 -54 -36.5 -24.5 Q-13 5 18 21 Q-1 32 -7 52 Q-13 72 -5 99 Q2 127 23.5 160.5 Q45 194 92 244 Q73 269 68 301.5 Q63 334 71 370 Q91 459 156 507.5 Q221 556 321 556 Q366 556 398.5 548 Q431 540 452 524 L585 556 L557 451 L499 451 Q510 340 441 262.5 Q372 185 252 184 Q218 184 193.5 188 Q169 192 148 201 Q124 171 117 158.5 Q110 146 107 133 Q100 109 111 100.5 Q122 92 165 92 L283 92 Q363 92 402.5 52 Q442 12 429 -55 Q411 -144 338 -189.5 Q265 -235 140 -235 Q29 -235 -24.5 -195.5 Q-78 -156 -66 -85 Z M387 370 Q398 416 376 440 Q354 464 299 464 Q251 464 220.5 440 Q190 416 179 370 Q169 326 192 300.5 Q215 275 266 276 Q315 277 346 301 Q377 325 387 370 Z M114 0 Q103 0 98 0 Q93 0 89 1 Q74 -12 63.5 -28.5 Q53 -45 49 -61 Q38 -100 66.5 -121.5 Q95 -143 160 -143 Q234 -143 273.5 -122.5 Q313 -102 320 -61 Q325 -31 302.5 -15.5 Q280 0 230 0 L114 0 Z " />
<glyph glyph-name="h" unicode="h" horiz-adv-x="620" d="M207 402 L99 0 L-13 0 L199 791 L311 791 L234 505 L237 502 Q283 530 326.5 543 Q370 556 414 556 Q497 556 523 506.5 Q549 457 522 356 L427 0 L315 0 L401 319 Q421 396 411.5 426 Q402 456 357 456 Q319 456 274 440 Q229 424 207 402 Z " />
<glyph glyph-name="hcircumflex" unicode="&#x125;" horiz-adv-x="620" d="M302 956 L164 833 L111 884 L279 1059 L364 1059 L441 878 L367 833 L302 956 Z M207 402 L99 0 L-13 0 L199 791 L311 791 L234 505 L237 502 Q283 530 326.5 543 Q370 556 414 556 Q497 556 523 506.5 Q549 457 522 356 L427 0 L315 0 L401 319 Q421 396 411.5 426 Q402 456 357 456 Q319 456 274 440 Q229 424 207 402 Z " />
<glyph glyph-name="hbar" unicode="&#x127;" horiz-adv-x="620" d="M207 402 L99 0 L-13 0 L152 614 L102 614 L128 710 L177 710 L199 791 L311 791 L289 710 L491 710 L465 614 L263 614 L234 505 L237 502 Q283 530 326.5 543 Q370 556 414 556 Q497 556 523 506.5 Q549 457 522 356 L427 0 L315 0 L401 319 Q421 396 411.5 426 Q402 456 357 456 Q319 456 274 440 Q229 424 207 402 Z " />
<glyph glyph-name="i" unicode="i" horiz-adv-x="292" d="M332 751 Q323 718 295 695.5 Q267 673 233 673 Q200 673 183.5 695.5 Q167 718 176 751 Q185 784 213.5 806.5 Q242 829 275 829 Q308 829 324.5 806.5 Q341 784 332 751 Z M245 545 L99 0 L-13 0 L133 545 L245 545 Z " />
<glyph glyph-name="igrave" unicode="&#xec;" horiz-adv-x="292" d="M154 897 L295 702 L239 647 L63 824 L154 897 Z M245 545 L99 0 L-13 0 L133 545 L245 545 Z " />
<glyph glyph-name="iacute" unicode="&#xed;" horiz-adv-x="292" d="M456 822 L211 646 L164 706 L377 903 L456 822 Z M245 545 L99 0 L-13 0 L133 545 L245 545 Z " />
<glyph glyph-name="icircumflex" unicode="&#xee;" horiz-adv-x="292" d="M265 760 L127 637 L74 688 L242 863 L327 863 L404 682 L330 637 L265 760 Z M245 545 L99 0 L-13 0 L133 545 L245 545 Z " />
<glyph glyph-name="idieresis" unicode="&#xef;" horiz-adv-x="292" d="M391 852 Q424 852 440.5 829.5 Q457 807 448 774 Q439 741 411 718.5 Q383 696 349 696 Q316 696 299.5 718.5 Q283 741 292 774 Q301 807 329.5 829.5 Q358 852 391 852 Z M171 852 Q204 852 220.5 829.5 Q237 807 228 774 Q219 741 191 718.5 Q163 696 129 696 Q96 696 79.5 718.5 Q63 741 72 774 Q81 807 109.5 829.5 Q138 852 171 852 Z M245 545 L99 0 L-13 0 L133 545 L245 545 Z " />
<glyph glyph-name="itilde" unicode="&#x129;" horiz-adv-x="292" d="M442 839 Q427 746 388.5 700.5 Q350 655 294 663 Q278 665 263.5 675.5 Q249 686 230 713 Q217 730 210.5 735.5 Q204 741 198 741 Q184 742 172 723 Q160 704 149 665 L67 665 Q82 757 121 802 Q160 847 215 839 Q232 837 246.5 826.5 Q261 816 281 789 Q293 772 299 767 Q305 762 311 762 Q325 761 337 780 Q349 799 360 839 L442 839 Z M245 545 L99 0 L-13 0 L133 545 L245 545 Z " />
<glyph glyph-name="imacron" unicode="&#x12b;" horiz-adv-x="292" d="M426 791 L401 699 L79 699 L104 791 L426 791 Z M245 545 L99 0 L-13 0 L133 545 L245 545 Z " />
<glyph glyph-name="ibreve" unicode="&#x12d;" horiz-adv-x="292" d="M436 832 Q416 750 362 700.5 Q308 651 235 651 Q159 651 127 701.5 Q95 752 116 832 L199 832 Q189 790 202.5 765.5 Q216 741 251 741 Q287 741 313.5 765 Q340 789 353 832 L436 832 Z M245 545 L99 0 L-13 0 L133 545 L245 545 Z " />
<glyph glyph-name="iogonek" unicode="&#x12f;" horiz-adv-x="292" d="M331 751 Q322 718 294 695.5 Q266 673 232 673 Q199 673 182.5 695.5 Q166 718 175 751 Q184 784 212.5 806.5 Q241 829 274 829 Q307 829 323.5 806.5 Q340 784 331 751 Z M50 -214 Q30 -225 6.5 -230.5 Q-17 -236 -39 -235 Q-82 -233 -104 -204.5 Q-126 -176 -117 -135 Q-109 -98 -83.5 -67 Q-58 -36 -4 0 L-14 0 L132 545 L244 545 L99 2 L108 0 Q64 -22 31 -55 Q-2 -88 -6 -113 Q-8 -130 -0.5 -138.5 Q7 -147 24 -147 Q35 -147 47.5 -143.5 Q60 -140 71 -134 L50 -214 Z " />
<glyph glyph-name="dotlessi" unicode="&#x131;" horiz-adv-x="292" d="M245 545 L99 0 L-13 0 L133 545 L245 545 Z " />
<glyph glyph-name="idotaccent" unicode="&#xe0dc;" horiz-adv-x="292" d="M332 751 Q323 718 295 695.5 Q267 673 233 673 Q200 673 183.5 695.5 Q167 718 176 751 Q185 784 213.5 806.5 Q242 829 275 829 Q308 829 324.5 806.5 Q341 784 332 751 Z M245 545 L99 0 L-13 0 L133 545 L245 545 Z " />
<glyph glyph-name="ij" unicode="&#x133;" horiz-adv-x="584" d="M626 751 Q617 718 589 695.5 Q561 673 527 673 Q494 673 477.5 695.5 Q461 718 470 751 Q479 784 507.5 806.5 Q536 829 569 829 Q602 829 618.5 806.5 Q635 784 626 751 Z M332 751 Q323 718 295 695.5 Q267 673 233 673 Q200 673 183.5 695.5 Q167 718 176 751 Q185 784 213.5 806.5 Q242 829 275 829 Q308 829 324.5 806.5 Q341 784 332 751 Z M84 -132 Q127 -134 159 -126 Q191 -118 215 -100 Q241 -81 257 -51 Q273 -21 292 49 L425 545 L537 545 L404 49 Q378 -48 347.5 -101 Q317 -154 268 -186 Q228 -212 175 -224.5 Q122 -237 56 -235 L84 -132 Z M245 545 L99 0 L-13 0 L133 545 L245 545 Z " />
<glyph glyph-name="j" unicode="j" horiz-adv-x="292" d="M334 751 Q325 718 297 695.5 Q269 673 235 673 Q202 673 185.5 695.5 Q169 718 178 751 Q187 784 215.5 806.5 Q244 829 277 829 Q310 829 326.5 806.5 Q343 784 334 751 Z M-208 -132 Q-165 -134 -133 -126 Q-101 -118 -77 -100 Q-51 -81 -35 -51 Q-19 -21 0 49 L133 545 L245 545 L112 49 Q86 -48 55.5 -101 Q25 -154 -24 -186 Q-64 -212 -117 -224.5 Q-170 -237 -236 -235 L-208 -132 Z " />
<glyph glyph-name="jcircumflex" unicode="&#x135;" horiz-adv-x="292" d="M247 760 L109 637 L56 688 L224 863 L309 863 L386 682 L312 637 L247 760 Z M-218 -132 Q-175 -134 -143 -126 Q-111 -118 -87 -100 Q-61 -81 -45 -51 Q-29 -21 -10 49 L123 545 L235 545 L102 49 Q76 -48 45.5 -101 Q15 -154 -34 -186 Q-74 -212 -127 -224.5 Q-180 -237 -246 -235 L-218 -132 Z " />
<glyph glyph-name="dotlessj" unicode="&#x237;" horiz-adv-x="292" d="M-208 -132 Q-165 -134 -133 -126 Q-101 -118 -77 -100 Q-51 -81 -35 -51 Q-19 -21 0 49 L133 545 L245 545 L112 49 Q86 -48 55.5 -101 Q25 -154 -24 -186 Q-64 -212 -117 -224.5 Q-170 -237 -236 -235 L-208 -132 Z " />
<glyph glyph-name="k" unicode="k" horiz-adv-x="553" d="M168 252 L100 0 L-13 0 L199 791 L312 791 L194 347 Q239 347 262 362 Q285 377 330 424 Q345 439 366 462 Q387 485 441 545 L566 545 L384 352 Q361 328 343.5 314.5 Q326 301 315 299 L314 296 Q323 292 330 279.5 Q337 267 355 223 L445 0 L321 0 Q306 45 299 65.5 Q292 86 287 102 Q274 139 265.5 162 Q257 185 250 200 Q236 230 222 241 Q208 252 168 252 Z " />
<glyph glyph-name="kcommaaccent" unicode="&#x137;" horiz-adv-x="553" d="M168 252 L100 0 L-13 0 L199 791 L312 791 L194 347 Q239 347 262 362 Q285 377 330 424 Q345 439 366 462 Q387 485 441 545 L566 545 L384 352 Q361 328 343.5 314.5 Q326 301 315 299 L314 296 Q323 292 330 279.5 Q337 267 355 223 L445 0 L321 0 Q306 45 299 65.5 Q292 86 287 102 Q274 139 265.5 162 Q257 185 250 200 Q236 230 222 241 Q208 252 168 252 Z M272 -134 L87 -251 L45 -191 L197 -53 L272 -134 Z " />
<glyph glyph-name="kgreenlandic" unicode="&#x138;" horiz-adv-x="533" d="M140 230 L78 0 L-32 0 L114 546 L224 546 L166 328 Q195 328 217.5 345.5 Q240 363 295 423 Q309 438 328 458.5 Q347 479 408 546 L537 546 L327 330 Q312 314 296 302.5 Q280 291 262 284 Q259 283 258 282.5 Q257 282 257 282 L256 280 Q256 280 256.5 279.5 Q257 279 259 278 Q270 270 278.5 258 Q287 246 294 229 L406 0 L293 0 Q272 49 265.5 64 Q259 79 254 90 Q239 123 229.5 143.5 Q220 164 213 178 Q197 209 184 220 Q171 231 140 230 Z " />
<glyph glyph-name="l" unicode="l" horiz-adv-x="292" d="M311 791 L99 0 L-13 0 L199 791 L311 791 Z " />
<glyph glyph-name="lacute" unicode="&#x13a;" horiz-adv-x="292" d="M531 1057 L286 881 L239 941 L452 1138 L531 1057 Z M311 791 L99 0 L-13 0 L199 791 L311 791 Z " />
<glyph glyph-name="lcommaaccent" unicode="&#x13c;" horiz-adv-x="292" d="M311 791 L99 0 L-13 0 L199 791 L311 791 Z M109 -134 L-76 -251 L-118 -191 L34 -53 L109 -134 Z " />
<glyph glyph-name="lcaron" unicode="&#x13e;" horiz-adv-x="312" d="M574 880 L412 628 L339 653 L457 905 L574 880 Z M311 791 L99 0 L-13 0 L199 791 L311 791 Z " />
<glyph glyph-name="ldot" unicode="&#x140;" horiz-adv-x="362" d="M311 791 L99 0 L-13 0 L199 791 L311 791 Z M444 516 Q435 483 407 460.5 Q379 438 345 438 Q312 438 295.5 460.5 Q279 483 288 516 Q297 549 325.5 571.5 Q354 594 387 594 Q420 594 436.5 571.5 Q453 549 444 516 Z " />
<glyph glyph-name="lslash" unicode="&#x142;" horiz-adv-x="292" d="M304 420 L196 362 L99 0 L-13 0 L65 292 L-13 250 L17 365 L96 407 L199 791 L311 791 L227 477 L335 535 L304 420 Z " />
<glyph glyph-name="m" unicode="m" horiz-adv-x="930" d="M205 397 L99 0 L-13 0 L133 545 L245 545 L232 499 L235 496 Q291 530 331 543 Q371 556 411 556 Q457 556 485 537.5 Q513 519 522 482 Q581 520 631 538 Q681 556 726 556 Q804 556 831.5 506.5 Q859 457 833 361 L737 0 L625 0 L714 334 Q731 397 719.5 426.5 Q708 456 667 456 Q632 456 590.5 437 Q549 418 523 391 L418 0 L306 0 L394 328 Q412 396 401.5 426 Q391 456 349 456 Q312 456 270.5 439 Q229 422 205 397 Z " />
<glyph glyph-name="n" unicode="n" horiz-adv-x="620" d="M206 398 L99 0 L-13 0 L133 545 L245 545 L233 501 L236 498 Q285 528 329 542 Q373 556 415 556 Q497 556 523.5 507 Q550 458 523 357 L427 0 L315 0 L401 320 Q422 397 412.5 426.5 Q403 456 358 456 Q320 456 274.5 438.5 Q229 421 206 398 Z " />
<glyph glyph-name="ntilde" unicode="&#xf1;" horiz-adv-x="620" d="M588 839 Q573 746 534.5 700.5 Q496 655 440 663 Q424 665 409.5 675.5 Q395 686 376 713 Q363 730 356.5 735.5 Q350 741 344 741 Q330 742 318 723 Q306 704 295 665 L213 665 Q228 757 267 802 Q306 847 361 839 Q378 837 392.5 826.5 Q407 816 427 789 Q439 772 445 767 Q451 762 457 762 Q471 761 483 780 Q495 799 506 839 L588 839 Z M206 398 L99 0 L-13 0 L133 545 L245 545 L233 501 L236 498 Q285 528 329 542 Q373 556 415 556 Q497 556 523.5 507 Q550 458 523 357 L427 0 L315 0 L401 320 Q422 397 412.5 426.5 Q403 456 358 456 Q320 456 274.5 438.5 Q229 421 206 398 Z " />
<glyph glyph-name="nacute" unicode="&#x144;" horiz-adv-x="620" d="M649 822 L404 646 L357 706 L570 903 L649 822 Z M206 398 L99 0 L-13 0 L133 545 L245 545 L233 501 L236 498 Q285 528 329 542 Q373 556 415 556 Q497 556 523.5 507 Q550 458 523 357 L427 0 L315 0 L401 320 Q422 397 412.5 426.5 Q403 456 358 456 Q320 456 274.5 438.5 Q229 421 206 398 Z " />
<glyph glyph-name="ncommaaccent" unicode="&#x146;" horiz-adv-x="620" d="M206 398 L99 0 L-13 0 L133 545 L245 545 L233 501 L236 498 Q285 528 329 542 Q373 556 415 556 Q497 556 523.5 507 Q550 458 523 357 L427 0 L315 0 L401 320 Q422 397 412.5 426.5 Q403 456 358 456 Q320 456 274.5 438.5 Q229 421 206 398 Z M287 -134 L102 -251 L60 -191 L212 -53 L287 -134 Z " />
<glyph glyph-name="ncaron" unicode="&#x148;" horiz-adv-x="620" d="M401 744 L539 867 L592 816 L424 641 L339 641 L262 822 L336 867 L401 744 Z M206 398 L99 0 L-13 0 L133 545 L245 545 L233 501 L236 498 Q285 528 329 542 Q373 556 415 556 Q497 556 523.5 507 Q550 458 523 357 L427 0 L315 0 L401 320 Q422 397 412.5 426.5 Q403 456 358 456 Q320 456 274.5 438.5 Q229 421 206 398 Z " />
<glyph glyph-name="napostrophe" unicode="&#x149;" horiz-adv-x="620" d="M178 747 L9 474 L-65 497 L61 769 L178 747 Z M206 398 L99 0 L-13 0 L133 545 L245 545 L233 501 L236 498 Q285 528 329 542 Q373 556 415 556 Q497 556 523.5 507 Q550 458 523 357 L427 0 L315 0 L401 320 Q422 397 412.5 426.5 Q403 456 358 456 Q320 456 274.5 438.5 Q229 421 206 398 Z " />
<glyph glyph-name="eng" unicode="&#x14b;" horiz-adv-x="620" d="M206 398 L99 0 L-13 0 L133 545 L245 545 L233 501 L236 498 Q285 528 329 542 Q373 556 415 556 Q496 556 523 507 Q550 458 524 361 L440 49 Q414 -47 382 -102.5 Q350 -158 305 -186 Q263 -212 210 -224 Q157 -236 92 -235 L119 -133 Q164 -135 195.5 -127 Q227 -119 251 -100 Q277 -80 293.5 -50 Q310 -20 328 49 L402 324 Q422 399 412.5 427.5 Q403 456 358 456 Q320 456 274.5 438.5 Q229 421 206 398 Z " />
<glyph glyph-name="o" unicode="o" horiz-adv-x="593" d="M510 255 Q474 131 390.5 60 Q307 -11 195 -11 Q81 -11 34.5 71.5 Q-12 154 26 291 Q60 412 142.5 484 Q225 556 335 556 Q452 556 500.5 472.5 Q549 389 510 255 Z M401 272 Q423 354 398.5 404.5 Q374 455 311 456 Q252 457 203.5 405.5 Q155 354 134 272 Q112 189 135.5 139.5 Q159 90 221 89 Q280 88 329.5 139 Q379 190 401 272 Z " />
<glyph glyph-name="ograve" unicode="&#xf2;" horiz-adv-x="593" d="M316 897 L457 702 L401 647 L225 824 L316 897 Z M510 255 Q474 131 390.5 60 Q307 -11 195 -11 Q81 -11 34.5 71.5 Q-12 154 26 291 Q60 412 142.5 484 Q225 556 335 556 Q452 556 500.5 472.5 Q549 389 510 255 Z M401 272 Q423 354 398.5 404.5 Q374 455 311 456 Q252 457 203.5 405.5 Q155 354 134 272 Q112 189 135.5 139.5 Q159 90 221 89 Q280 88 329.5 139 Q379 190 401 272 Z " />
<glyph glyph-name="oacute" unicode="&#xf3;" horiz-adv-x="593" d="M624 822 L379 646 L332 706 L545 903 L624 822 Z M510 255 Q474 131 390.5 60 Q307 -11 195 -11 Q81 -11 34.5 71.5 Q-12 154 26 291 Q60 412 142.5 484 Q225 556 335 556 Q452 556 500.5 472.5 Q549 389 510 255 Z M401 272 Q423 354 398.5 404.5 Q374 455 311 456 Q252 457 203.5 405.5 Q155 354 134 272 Q112 189 135.5 139.5 Q159 90 221 89 Q280 88 329.5 139 Q379 190 401 272 Z " />
<glyph glyph-name="ocircumflex" unicode="&#xf4;" horiz-adv-x="593" d="M416 760 L278 637 L225 688 L393 863 L478 863 L555 682 L481 637 L416 760 Z M510 255 Q474 131 390.5 60 Q307 -11 195 -11 Q81 -11 34.5 71.5 Q-12 154 26 291 Q60 412 142.5 484 Q225 556 335 556 Q452 556 500.5 472.5 Q549 389 510 255 Z M401 272 Q423 354 398.5 404.5 Q374 455 311 456 Q252 457 203.5 405.5 Q155 354 134 272 Q112 189 135.5 139.5 Q159 90 221 89 Q280 88 329.5 139 Q379 190 401 272 Z " />
<glyph glyph-name="otilde" unicode="&#xf5;" horiz-adv-x="593" d="M593 839 Q578 746 539.5 700.5 Q501 655 445 663 Q429 665 414.5 675.5 Q400 686 381 713 Q368 730 361.5 735.5 Q355 741 349 741 Q335 742 323 723 Q311 704 300 665 L218 665 Q233 757 272 802 Q311 847 366 839 Q383 837 397.5 826.5 Q412 816 432 789 Q444 772 450 767 Q456 762 462 762 Q476 761 488 780 Q500 799 511 839 L593 839 Z M510 255 Q474 131 390.5 60 Q307 -11 195 -11 Q81 -11 34.5 71.5 Q-12 154 26 291 Q60 412 142.5 484 Q225 556 335 556 Q452 556 500.5 472.5 Q549 389 510 255 Z M401 272 Q423 354 398.5 404.5 Q374 455 311 456 Q252 457 203.5 405.5 Q155 354 134 272 Q112 189 135.5 139.5 Q159 90 221 89 Q280 88 329.5 139 Q379 190 401 272 Z " />
<glyph glyph-name="odieresis" unicode="&#xf6;" horiz-adv-x="593" d="M542 852 Q575 852 591.5 829.5 Q608 807 599 774 Q590 741 562 718.5 Q534 696 500 696 Q467 696 450.5 718.5 Q434 741 443 774 Q452 807 480.5 829.5 Q509 852 542 852 Z M322 852 Q355 852 371.5 829.5 Q388 807 379 774 Q370 741 342 718.5 Q314 696 280 696 Q247 696 230.5 718.5 Q214 741 223 774 Q232 807 260.5 829.5 Q289 852 322 852 Z M510 255 Q474 131 390.5 60 Q307 -11 195 -11 Q81 -11 34.5 71.5 Q-12 154 26 291 Q60 412 142.5 484 Q225 556 335 556 Q452 556 500.5 472.5 Q549 389 510 255 Z M401 272 Q423 354 398.5 404.5 Q374 455 311 456 Q252 457 203.5 405.5 Q155 354 134 272 Q112 189 135.5 139.5 Q159 90 221 89 Q280 88 329.5 139 Q379 190 401 272 Z " />
<glyph glyph-name="omacron" unicode="&#x14d;" horiz-adv-x="593" d="M577 791 L552 699 L230 699 L255 791 L577 791 Z M510 255 Q474 131 390.5 60 Q307 -11 195 -11 Q81 -11 34.5 71.5 Q-12 154 26 291 Q60 412 142.5 484 Q225 556 335 556 Q452 556 500.5 472.5 Q549 389 510 255 Z M401 272 Q423 354 398.5 404.5 Q374 455 311 456 Q252 457 203.5 405.5 Q155 354 134 272 Q112 189 135.5 139.5 Q159 90 221 89 Q280 88 329.5 139 Q379 190 401 272 Z " />
<glyph glyph-name="obreve" unicode="&#x14f;" horiz-adv-x="593" d="M587 832 Q567 750 513 700.5 Q459 651 386 651 Q310 651 278 701.5 Q246 752 267 832 L350 832 Q340 790 353.5 765.5 Q367 741 402 741 Q438 741 464.5 765 Q491 789 504 832 L587 832 Z M510 255 Q474 131 390.5 60 Q307 -11 195 -11 Q81 -11 34.5 71.5 Q-12 154 26 291 Q60 412 142.5 484 Q225 556 335 556 Q452 556 500.5 472.5 Q549 389 510 255 Z M401 272 Q423 354 398.5 404.5 Q374 455 311 456 Q252 457 203.5 405.5 Q155 354 134 272 Q112 189 135.5 139.5 Q159 90 221 89 Q280 88 329.5 139 Q379 190 401 272 Z " />
<glyph glyph-name="ohungarumlaut" unicode="&#x151;" horiz-adv-x="593" d="M495 847 L273 635 L217 683 L400 908 L495 847 Z M701 812 L455 628 L411 685 L621 889 L701 812 Z M510 255 Q474 131 390.5 60 Q307 -11 195 -11 Q81 -11 34.5 71.5 Q-12 154 26 291 Q60 412 142.5 484 Q225 556 335 556 Q452 556 500.5 472.5 Q549 389 510 255 Z M401 272 Q423 354 398.5 404.5 Q374 455 311 456 Q252 457 203.5 405.5 Q155 354 134 272 Q112 189 135.5 139.5 Q159 90 221 89 Q280 88 329.5 139 Q379 190 401 272 Z " />
<glyph glyph-name="oslash" unicode="&#xf8;" horiz-adv-x="593" d="M194 -11 Q158 -11 128.5 -2.5 Q99 6 77 22 L34 -21 L-17 25 L32 74 Q11 113 8.5 168.5 Q6 224 25 291 Q59 412 141.5 484 Q224 556 334 556 Q375 556 408.5 545 Q442 534 467 513 L518 565 L570 519 L508 457 Q525 418 526 366.5 Q527 315 509 255 Q473 131 389.5 60 Q306 -11 194 -11 Z M133 272 Q125 242 123 215.5 Q121 189 125 168 L382 428 Q369 441 351 448.5 Q333 456 310 456 Q251 457 202.5 405.5 Q154 354 133 272 Z M400 272 Q406 296 408.5 317.5 Q411 339 410 358 L161 107 Q172 98 187 93.5 Q202 89 220 89 Q279 88 328.5 139 Q378 190 400 272 Z " />
<glyph glyph-name="oslashacute" unicode="&#x1ff;" horiz-adv-x="593" d="M610 822 L365 646 L318 706 L531 903 L610 822 Z M194 -11 Q158 -11 128.5 -2.5 Q99 6 77 22 L34 -21 L-17 25 L32 74 Q11 113 8.5 168.5 Q6 224 25 291 Q59 412 141.5 484 Q224 556 334 556 Q375 556 408.5 545 Q442 534 467 513 L518 565 L570 519 L508 457 Q525 418 526 366.5 Q527 315 509 255 Q473 131 389.5 60 Q306 -11 194 -11 Z M133 272 Q125 242 123 215.5 Q121 189 125 168 L382 428 Q369 441 351 448.5 Q333 456 310 456 Q251 457 202.5 405.5 Q154 354 133 272 Z M400 272 Q406 296 408.5 317.5 Q411 339 410 358 L161 107 Q172 98 187 93.5 Q202 89 220 89 Q279 88 328.5 139 Q378 190 400 272 Z " />
<glyph glyph-name="oe" unicode="&#x153;" horiz-adv-x="939" d="M770 29 Q719 8 678 -1.5 Q637 -11 599 -11 Q534 -11 487.5 14 Q441 39 417 85 Q374 39 317.5 14 Q261 -11 195 -11 Q81 -11 34.5 71.5 Q-12 154 26 291 Q60 412 142.5 484 Q225 556 335 556 Q393 556 435 534.5 Q477 513 500 474 Q543 516 598.5 537.5 Q654 559 717 556 Q842 551 874.5 456 Q907 361 836 229 L502 229 Q490 160 522 124 Q554 88 627 88 Q663 88 705 98.5 Q747 109 798 131 L770 29 Z M698 467 Q636 469 590.5 432 Q545 395 525 327 Q525 325 524.5 322.5 Q524 320 524 317 L767 317 Q795 376 775.5 421 Q756 466 698 467 Z M134 272 Q112 189 135.5 139.5 Q159 90 221 89 Q280 88 329.5 138.5 Q379 189 400 267 L400 269 Q402 279 404 288.5 Q406 298 408 307 Q419 374 393 414.5 Q367 455 311 456 Q252 457 203.5 405.5 Q155 354 134 272 Z " />
<glyph glyph-name="p" unicode="p" horiz-adv-x="602" d="M401 554 Q481 541 517 457 Q553 373 522 253 Q489 126 410 57.5 Q331 -11 219 -11 Q203 -11 188.5 -10 Q174 -9 161 -6 Q141 -2 127.5 3 Q114 8 107 14 L103 11 L40 -224 L-73 -224 L133 545 L246 545 L234 498 L236 497 Q269 531 312 546 Q355 561 401 554 Z M131 116 Q143 104 171 97 Q199 90 236 90 Q296 90 340 134 Q384 178 406 260 Q428 340 411 390 Q394 440 345 447 Q308 452 268.5 436.5 Q229 421 205 394 L131 116 Z " />
<glyph glyph-name="thorn" unicode="&#xfe;" horiz-adv-x="602" d="M401 554 Q481 541 517 457 Q553 373 522 253 Q489 126 410 57.5 Q331 -11 219 -11 Q203 -11 188.5 -10 Q174 -9 161 -6 Q141 -2 127.5 3 Q114 8 107 14 L103 11 L40 -224 L-73 -224 L199 791 L312 791 L234 498 L236 497 Q269 531 312 546 Q355 561 401 554 Z M131 116 Q143 104 171 97 Q199 90 236 90 Q296 90 340 134 Q384 178 406 260 Q428 340 411 390 Q394 440 345 447 Q308 452 268.5 436.5 Q229 421 205 394 L131 116 Z " />
<glyph glyph-name="q" unicode="q" horiz-adv-x="602" d="M331 556 Q365 556 394 549 Q423 542 445 529 L558 553 L350 -224 L237 -224 L305 31 L302 34 Q260 6 222.5 -4 Q185 -14 142 -10 Q61 -2 25 83 Q-11 168 21 291 Q53 414 136.5 485 Q220 556 331 556 Z M412 428 Q388 444 363 450.5 Q338 457 307 455 Q248 451 203 406 Q158 361 137 284 Q114 201 130.5 151.5 Q147 102 198 96 Q236 91 275.5 105.5 Q315 120 336 144 L412 428 Z " />
<glyph glyph-name="r" unicode="r" horiz-adv-x="425" d="M195 360 L99 0 L-13 0 L133 545 L245 545 L228 480 L231 477 Q269 515 314 535.5 Q359 556 407 556 Q416 556 424 555.5 Q432 555 440 554 L408 432 Q403 433 398 433 Q393 433 386 433 Q324 433 274.5 413.5 Q225 394 195 360 Z " />
<glyph glyph-name="racute" unicode="&#x155;" horiz-adv-x="425" d="M533 822 L288 646 L241 706 L454 903 L533 822 Z M195 360 L99 0 L-13 0 L133 545 L245 545 L228 480 L231 477 Q269 515 314 535.5 Q359 556 407 556 Q416 556 424 555.5 Q432 555 440 554 L408 432 Q403 433 398 433 Q393 433 386 433 Q324 433 274.5 413.5 Q225 394 195 360 Z " />
<glyph glyph-name="rcommaaccent" unicode="&#x157;" horiz-adv-x="425" d="M195 360 L99 0 L-13 0 L133 545 L245 545 L228 480 L231 477 Q269 515 314 535.5 Q359 556 407 556 Q416 556 424 555.5 Q432 555 440 554 L408 432 Q403 433 398 433 Q393 433 386 433 Q324 433 274.5 413.5 Q225 394 195 360 Z M114 -134 L-71 -251 L-113 -191 L39 -53 L114 -134 Z " />
<glyph glyph-name="rcaron" unicode="&#x159;" horiz-adv-x="425" d="M326 744 L464 867 L517 816 L349 641 L264 641 L187 822 L261 867 L326 744 Z M195 360 L99 0 L-13 0 L133 545 L245 545 L228 480 L231 477 Q269 515 314 535.5 Q359 556 407 556 Q416 556 424 555.5 Q432 555 440 554 L408 432 Q403 433 398 433 Q393 433 386 433 Q324 433 274.5 413.5 Q225 394 195 360 Z " />
<glyph glyph-name="s" unicode="s" horiz-adv-x="497" d="M376 142 Q361 69 298.5 29 Q236 -11 136 -11 Q90 -11 47.5 1 Q5 13 -20 32 Q-13 59 -6 85.5 Q1 112 8 139 Q18 126 34 115.5 Q50 105 72 97 Q89 91 108.5 87.5 Q128 84 148 84 Q196 84 226 98.5 Q256 113 262 140 Q267 163 253.5 181.5 Q240 200 186 229 Q144 251 125 265.5 Q106 280 94 296 Q76 318 70 345.5 Q64 373 70 406 Q83 478 142.5 517 Q202 556 302 556 Q347 556 385 545.5 Q423 535 448 516 L421 416 Q387 438 351.5 449.5 Q316 461 283 461 Q241 461 213.5 445.5 Q186 430 181 405 Q176 383 189.5 365 Q203 347 258 320 Q302 298 321.5 284 Q341 270 354 254 Q372 232 377.5 204 Q383 176 376 142 Z " />
<glyph glyph-name="sacute" unicode="&#x15b;" horiz-adv-x="497" d="M571 822 L326 646 L279 706 L492 903 L571 822 Z M376 142 Q361 69 298.5 29 Q236 -11 136 -11 Q90 -11 47.5 1 Q5 13 -20 32 Q-13 59 -6 85.5 Q1 112 8 139 Q18 126 34 115.5 Q50 105 72 97 Q89 91 108.5 87.5 Q128 84 148 84 Q196 84 226 98.5 Q256 113 262 140 Q267 163 253.5 181.5 Q240 200 186 229 Q144 251 125 265.5 Q106 280 94 296 Q76 318 70 345.5 Q64 373 70 406 Q83 478 142.5 517 Q202 556 302 556 Q347 556 385 545.5 Q423 535 448 516 L421 416 Q387 438 351.5 449.5 Q316 461 283 461 Q241 461 213.5 445.5 Q186 430 181 405 Q176 383 189.5 365 Q203 347 258 320 Q302 298 321.5 284 Q341 270 354 254 Q372 232 377.5 204 Q383 176 376 142 Z " />
<glyph glyph-name="scircumflex" unicode="&#x15d;" horiz-adv-x="497" d="M370 760 L232 637 L179 688 L347 863 L432 863 L509 682 L435 637 L370 760 Z M376 142 Q361 69 298.5 29 Q236 -11 136 -11 Q90 -11 47.5 1 Q5 13 -20 32 Q-13 59 -6 85.5 Q1 112 8 139 Q18 126 34 115.5 Q50 105 72 97 Q89 91 108.5 87.5 Q128 84 148 84 Q196 84 226 98.5 Q256 113 262 140 Q267 163 253.5 181.5 Q240 200 186 229 Q144 251 125 265.5 Q106 280 94 296 Q76 318 70 345.5 Q64 373 70 406 Q83 478 142.5 517 Q202 556 302 556 Q347 556 385 545.5 Q423 535 448 516 L421 416 Q387 438 351.5 449.5 Q316 461 283 461 Q241 461 213.5 445.5 Q186 430 181 405 Q176 383 189.5 365 Q203 347 258 320 Q302 298 321.5 284 Q341 270 354 254 Q372 232 377.5 204 Q383 176 376 142 Z " />
<glyph glyph-name="scedilla" unicode="&#x15f;" horiz-adv-x="497" d="M229 -56 Q213 -115 167.5 -147 Q122 -179 61 -179 Q43 -179 27.5 -177 Q12 -175 -1 -171 Q5 -148 11.5 -125 Q18 -102 24 -79 Q35 -83 47 -85 Q59 -87 71 -87 Q93 -87 109.5 -76 Q126 -65 131 -46 Q133 -37 133 -28 Q133 -19 130 -11 Q86 -10 45 2 Q4 14 -20 32 Q-13 59 -6 85.5 Q1 112 8 139 Q18 126 34 115.5 Q50 105 72 97 Q89 91 108.5 87.5 Q128 84 148 84 Q196 84 226 98.5 Q256 113 262 140 Q267 163 253.5 181.5 Q240 200 186 229 Q144 251 125 265.5 Q106 280 94 296 Q76 318 70 345.5 Q64 373 70 406 Q83 478 142.5 517 Q202 556 302 556 Q347 556 385 545.5 Q423 535 448 516 L421 416 Q387 438 351.5 449.5 Q316 461 283 461 Q241 461 213.5 445.5 Q186 430 181 405 Q176 383 189.5 365 Q203 347 258 320 Q302 298 321.5 284 Q341 270 354 254 Q372 232 377.5 204 Q383 176 376 142 Q365 87 326.5 50.5 Q288 14 227 -1 Q232 -14 232.5 -28 Q233 -42 229 -56 Z " />
<glyph glyph-name="scaron" unicode="&#x161;" horiz-adv-x="497" d="M335 744 L473 867 L526 816 L358 641 L273 641 L196 822 L270 867 L335 744 Z M376 142 Q361 69 298.5 29 Q236 -11 136 -11 Q90 -11 47.5 1 Q5 13 -20 32 Q-13 59 -6 85.5 Q1 112 8 139 Q18 126 34 115.5 Q50 105 72 97 Q89 91 108.5 87.5 Q128 84 148 84 Q196 84 226 98.5 Q256 113 262 140 Q267 163 253.5 181.5 Q240 200 186 229 Q144 251 125 265.5 Q106 280 94 296 Q76 318 70 345.5 Q64 373 70 406 Q83 478 142.5 517 Q202 556 302 556 Q347 556 385 545.5 Q423 535 448 516 L421 416 Q387 438 351.5 449.5 Q316 461 283 461 Q241 461 213.5 445.5 Q186 430 181 405 Q176 383 189.5 365 Q203 347 258 320 Q302 298 321.5 284 Q341 270 354 254 Q372 232 377.5 204 Q383 176 376 142 Z " />
<glyph glyph-name="scommaaccent" unicode="&#x219;" horiz-adv-x="497" d="M376 142 Q361 69 298.5 29 Q236 -11 136 -11 Q90 -11 47.5 1 Q5 13 -20 32 Q-13 59 -6 85.5 Q1 112 8 139 Q18 126 34 115.5 Q50 105 72 97 Q89 91 108.5 87.5 Q128 84 148 84 Q196 84 226 98.5 Q256 113 262 140 Q267 163 253.5 181.5 Q240 200 186 229 Q144 251 125 265.5 Q106 280 94 296 Q76 318 70 345.5 Q64 373 70 406 Q83 478 142.5 517 Q202 556 302 556 Q347 556 385 545.5 Q423 535 448 516 L421 416 Q387 438 351.5 449.5 Q316 461 283 461 Q241 461 213.5 445.5 Q186 430 181 405 Q176 383 189.5 365 Q203 347 258 320 Q302 298 321.5 284 Q341 270 354 254 Q372 232 377.5 204 Q383 176 376 142 Z M204 -134 L19 -251 L-23 -191 L129 -53 L204 -134 Z " />
<glyph glyph-name="longs" unicode="&#x17f;" horiz-adv-x="412" d="M58 450 L83 545 L165 545 Q208 690 270 745.5 Q332 801 440 801 Q466 801 490 797 Q514 793 539 784 L511 680 Q498 691 476 697 Q454 703 426 703 Q365 703 334 673 Q303 643 277 545 L131 0 L19 0 L140 450 L58 450 Z " />
<glyph glyph-name="germandbls" unicode="&#xdf;" horiz-adv-x="744" d="M18 0 L139 450 L58 450 L83 545 L164 545 Q198 674 272 737.5 Q346 801 462 801 Q558 801 603 754.5 Q648 708 629 628 Q620 592 597 560 Q574 528 516 482 Q477 451 464 435.5 Q451 420 447 404 Q442 382 454 364 Q466 346 515 319 Q554 297 571.5 283 Q589 269 601 254 Q616 233 621 207 Q626 181 621 150 Q609 73 544.5 31 Q480 -11 376 -11 Q329 -11 287 0 Q245 11 222 29 L250 136 Q260 124 276.5 113.5 Q293 103 317 96 Q335 90 354.5 87 Q374 84 395 84 Q442 84 470.5 98.5 Q499 113 506 141 Q512 163 499 181.5 Q486 200 434 229 Q396 251 379 264.5 Q362 278 351 292 Q335 313 331 337.5 Q327 362 334 392 Q343 430 365 461 Q387 492 443 536 Q484 568 499 587 Q514 606 519 626 Q529 662 507.5 682 Q486 702 438 702 Q377 702 338 665 Q299 628 278 549 L131 0 L18 0 Z " />
<glyph glyph-name="t" unicode="t" horiz-adv-x="434" d="M296 16 Q269 3 240 -4 Q211 -11 183 -11 Q105 -11 74.5 45.5 Q44 102 70 200 L135 449 L47 449 L73 545 L161 545 L200 689 L312 689 L273 545 L425 545 L399 449 L247 449 L186 224 Q167 154 178.5 122 Q190 90 234 90 Q250 90 272 96.5 Q294 103 323 116 L296 16 Z " />
<glyph glyph-name="tcommaaccent" unicode="&#x163;" horiz-adv-x="434" d="M296 16 Q269 3 240 -4 Q211 -11 183 -11 Q105 -11 74.5 45.5 Q44 102 70 200 L135 449 L47 449 L73 545 L161 545 L200 689 L312 689 L273 545 L425 545 L399 449 L247 449 L186 224 Q167 154 178.5 122 Q190 90 234 90 Q250 90 272 96.5 Q294 103 323 116 L296 16 Z M226 -134 L41 -251 L-1 -191 L151 -53 L226 -134 Z " />
<glyph glyph-name="tcaron" unicode="&#x165;" horiz-adv-x="434" d="M602 880 L440 628 L367 653 L485 905 L602 880 Z M296 16 Q269 3 240 -4 Q211 -11 183 -11 Q105 -11 74.5 45.5 Q44 102 70 200 L135 449 L47 449 L73 545 L161 545 L200 689 L312 689 L273 545 L425 545 L399 449 L247 449 L186 224 Q167 154 178.5 122 Q190 90 234 90 Q250 90 272 96.5 Q294 103 323 116 L296 16 Z " />
<glyph glyph-name="tbar" unicode="&#x167;" horiz-adv-x="434" d="M296 16 Q269 3 240 -4 Q211 -11 183 -11 Q105 -11 74.5 45.5 Q44 102 70 200 L77 225 L-3 225 L23 321 L102 321 L135 449 L47 449 L73 545 L161 545 L200 689 L312 689 L273 545 L425 545 L399 449 L247 449 L212 321 L376 321 L350 225 L186 225 L186 224 Q167 154 178.5 122 Q190 90 234 90 Q250 90 272 96.5 Q294 103 323 116 L296 16 Z " />
<glyph glyph-name="u" unicode="u" horiz-adv-x="620" d="M328 50 Q283 20 238.5 4.5 Q194 -11 151 -11 Q74 -11 43.5 41 Q13 93 38 185 L134 545 L246 545 L160 222 Q141 151 152.5 120 Q164 89 208 89 Q244 89 288.5 107 Q333 125 357 150 L462 545 L574 545 L428 0 L316 0 L330 47 L328 50 Z " />
<glyph glyph-name="ugrave" unicode="&#xf9;" horiz-adv-x="620" d="M351 897 L492 702 L436 647 L260 824 L351 897 Z M328 50 Q283 20 238.5 4.5 Q194 -11 151 -11 Q74 -11 43.5 41 Q13 93 38 185 L134 545 L246 545 L160 222 Q141 151 152.5 120 Q164 89 208 89 Q244 89 288.5 107 Q333 125 357 150 L462 545 L574 545 L428 0 L316 0 L330 47 L328 50 Z " />
<glyph glyph-name="uacute" unicode="&#xfa;" horiz-adv-x="620" d="M644 822 L399 646 L352 706 L565 903 L644 822 Z M328 50 Q283 20 238.5 4.5 Q194 -11 151 -11 Q74 -11 43.5 41 Q13 93 38 185 L134 545 L246 545 L160 222 Q141 151 152.5 120 Q164 89 208 89 Q244 89 288.5 107 Q333 125 357 150 L462 545 L574 545 L428 0 L316 0 L330 47 L328 50 Z " />
<glyph glyph-name="ucircumflex" unicode="&#xfb;" horiz-adv-x="620" d="M430 760 L292 637 L239 688 L407 863 L492 863 L569 682 L495 637 L430 760 Z M328 50 Q283 20 238.5 4.5 Q194 -11 151 -11 Q74 -11 43.5 41 Q13 93 38 185 L134 545 L246 545 L160 222 Q141 151 152.5 120 Q164 89 208 89 Q244 89 288.5 107 Q333 125 357 150 L462 545 L574 545 L428 0 L316 0 L330 47 L328 50 Z " />
<glyph glyph-name="udieresis" unicode="&#xfc;" horiz-adv-x="620" d="M556 852 Q589 852 605.5 829.5 Q622 807 613 774 Q604 741 576 718.5 Q548 696 514 696 Q481 696 464.5 718.5 Q448 741 457 774 Q466 807 494.5 829.5 Q523 852 556 852 Z M336 852 Q369 852 385.5 829.5 Q402 807 393 774 Q384 741 356 718.5 Q328 696 294 696 Q261 696 244.5 718.5 Q228 741 237 774 Q246 807 274.5 829.5 Q303 852 336 852 Z M328 50 Q283 20 238.5 4.5 Q194 -11 151 -11 Q74 -11 43.5 41 Q13 93 38 185 L134 545 L246 545 L160 222 Q141 151 152.5 120 Q164 89 208 89 Q244 89 288.5 107 Q333 125 357 150 L462 545 L574 545 L428 0 L316 0 L330 47 L328 50 Z " />
<glyph glyph-name="utilde" unicode="&#x169;" horiz-adv-x="620" d="M607 839 Q592 746 553.5 700.5 Q515 655 459 663 Q443 665 428.5 675.5 Q414 686 395 713 Q382 730 375.5 735.5 Q369 741 363 741 Q349 742 337 723 Q325 704 314 665 L232 665 Q247 757 286 802 Q325 847 380 839 Q397 837 411.5 826.5 Q426 816 446 789 Q458 772 464 767 Q470 762 476 762 Q490 761 502 780 Q514 799 525 839 L607 839 Z M328 50 Q283 20 238.5 4.5 Q194 -11 151 -11 Q74 -11 43.5 41 Q13 93 38 185 L134 545 L246 545 L160 222 Q141 151 152.5 120 Q164 89 208 89 Q244 89 288.5 107 Q333 125 357 150 L462 545 L574 545 L428 0 L316 0 L330 47 L328 50 Z " />
<glyph glyph-name="umacron" unicode="&#x16b;" horiz-adv-x="620" d="M591 791 L566 699 L244 699 L269 791 L591 791 Z M328 50 Q283 20 238.5 4.5 Q194 -11 151 -11 Q74 -11 43.5 41 Q13 93 38 185 L134 545 L246 545 L160 222 Q141 151 152.5 120 Q164 89 208 89 Q244 89 288.5 107 Q333 125 357 150 L462 545 L574 545 L428 0 L316 0 L330 47 L328 50 Z " />
<glyph glyph-name="ubreve" unicode="&#x16d;" horiz-adv-x="620" d="M601 832 Q581 750 527 700.5 Q473 651 400 651 Q324 651 292 701.5 Q260 752 281 832 L364 832 Q354 790 367.5 765.5 Q381 741 416 741 Q452 741 478.5 765 Q505 789 518 832 L601 832 Z M328 50 Q283 20 238.5 4.5 Q194 -11 151 -11 Q74 -11 43.5 41 Q13 93 38 185 L134 545 L246 545 L160 222 Q141 151 152.5 120 Q164 89 208 89 Q244 89 288.5 107 Q333 125 357 150 L462 545 L574 545 L428 0 L316 0 L330 47 L328 50 Z " />
<glyph glyph-name="uring" unicode="&#x16f;" horiz-adv-x="620" d="M453 903 Q511 901 538.5 861.5 Q566 822 550 761 Q537 711 492.5 677.5 Q448 644 394 645 Q338 647 311.5 687 Q285 727 300 788 Q313 838 357 871.5 Q401 905 453 903 Z M437 829 Q413 830 393.5 814.5 Q374 799 370 774 Q366 750 377.5 735 Q389 720 413 719 Q437 718 456 734 Q475 750 480 774 Q485 798 473 813 Q461 828 437 829 Z M328 50 Q283 20 238.5 4.5 Q194 -11 151 -11 Q74 -11 43.5 41 Q13 93 38 185 L134 545 L246 545 L160 222 Q141 151 152.5 120 Q164 89 208 89 Q244 89 288.5 107 Q333 125 357 150 L462 545 L574 545 L428 0 L316 0 L330 47 L328 50 Z " />
<glyph glyph-name="uhungarumlaut" unicode="&#x171;" horiz-adv-x="620" d="M520 847 L298 635 L242 683 L425 908 L520 847 Z M726 812 L480 628 L436 685 L646 889 L726 812 Z M328 50 Q283 20 238.5 4.5 Q194 -11 151 -11 Q74 -11 43.5 41 Q13 93 38 185 L134 545 L246 545 L160 222 Q141 151 152.5 120 Q164 89 208 89 Q244 89 288.5 107 Q333 125 357 150 L462 545 L574 545 L428 0 L316 0 L330 47 L328 50 Z " />
<glyph glyph-name="uogonek" unicode="&#x173;" horiz-adv-x="620" d="M370 -214 Q350 -225 326.5 -230.5 Q303 -236 281 -235 Q238 -233 216 -204.5 Q194 -176 203 -135 Q211 -98 236.5 -67 Q262 -36 316 0 L330 47 L328 50 Q283 20 238.5 4.5 Q194 -11 151 -11 Q74 -11 43.5 41 Q13 93 38 185 L134 545 L246 545 L160 222 Q141 151 152.5 120 Q164 89 208 89 Q244 89 288.5 107 Q333 125 357 150 L462 545 L574 545 L428 0 Q384 -22 351 -55 Q318 -88 314 -113 Q312 -130 319.5 -138.5 Q327 -147 344 -147 Q355 -147 367.5 -143.5 Q380 -140 391 -134 L370 -214 Z " />
<glyph glyph-name="v" unicode="v" horiz-adv-x="522" d="M555 545 L215 0 L103 0 L53 545 L168 545 L189 208 Q191 177 191 157 Q191 137 188 127 L191 127 Q195 137 206 157.5 Q217 178 234 208 L428 545 L555 545 Z " />
<glyph glyph-name="w" unicode="w" horiz-adv-x="804" d="M355 297 L183 0 L70 0 L53 545 L161 545 L165 231 Q166 187 165 161.5 Q164 136 162 129 L165 129 Q165 137 176.5 162.5 Q188 188 212 231 L387 545 L500 545 L505 231 Q506 187 505 161.5 Q504 136 501 129 L504 129 Q504 136 516 161.5 Q528 187 552 231 L721 545 L837 545 L526 0 L413 0 L404 297 Q403 338 403.5 363.5 Q404 389 407 399 L404 399 Q403 388 390.5 362.5 Q378 337 355 297 Z " />
<glyph glyph-name="wcircumflex" unicode="&#x175;" horiz-adv-x="804" d="M521 760 L383 637 L330 688 L498 863 L583 863 L660 682 L586 637 L521 760 Z M355 297 L183 0 L70 0 L53 545 L161 545 L165 231 Q166 187 165 161.5 Q164 136 162 129 L165 129 Q165 137 176.5 162.5 Q188 188 212 231 L387 545 L500 545 L505 231 Q506 187 505 161.5 Q504 136 501 129 L504 129 Q504 136 516 161.5 Q528 187 552 231 L721 545 L837 545 L526 0 L413 0 L404 297 Q403 338 403.5 363.5 Q404 389 407 399 L404 399 Q403 388 390.5 362.5 Q378 337 355 297 Z " />
<glyph glyph-name="wgrave" unicode="&#x1e81;" horiz-adv-x="804" d="M429 897 L570 702 L514 647 L338 824 L429 897 Z M355 297 L183 0 L70 0 L53 545 L161 545 L165 231 Q166 187 165 161.5 Q164 136 162 129 L165 129 Q165 137 176.5 162.5 Q188 188 212 231 L387 545 L500 545 L505 231 Q506 187 505 161.5 Q504 136 501 129 L504 129 Q504 136 516 161.5 Q528 187 552 231 L721 545 L837 545 L526 0 L413 0 L404 297 Q403 338 403.5 363.5 Q404 389 407 399 L404 399 Q403 388 390.5 362.5 Q378 337 355 297 Z " />
<glyph glyph-name="wacute" unicode="&#x1e83;" horiz-adv-x="804" d="M728 822 L483 646 L436 706 L649 903 L728 822 Z M355 297 L183 0 L70 0 L53 545 L161 545 L165 231 Q166 187 165 161.5 Q164 136 162 129 L165 129 Q165 137 176.5 162.5 Q188 188 212 231 L387 545 L500 545 L505 231 Q506 187 505 161.5 Q504 136 501 129 L504 129 Q504 136 516 161.5 Q528 187 552 231 L721 545 L837 545 L526 0 L413 0 L404 297 Q403 338 403.5 363.5 Q404 389 407 399 L404 399 Q403 388 390.5 362.5 Q378 337 355 297 Z " />
<glyph glyph-name="wdieresis" unicode="&#x1e85;" horiz-adv-x="804" d="M647 852 Q680 852 696.5 829.5 Q713 807 704 774 Q695 741 667 718.5 Q639 696 605 696 Q572 696 555.5 718.5 Q539 741 548 774 Q557 807 585.5 829.5 Q614 852 647 852 Z M427 852 Q460 852 476.5 829.5 Q493 807 484 774 Q475 741 447 718.5 Q419 696 385 696 Q352 696 335.5 718.5 Q319 741 328 774 Q337 807 365.5 829.5 Q394 852 427 852 Z M355 297 L183 0 L70 0 L53 545 L161 545 L165 231 Q166 187 165 161.5 Q164 136 162 129 L165 129 Q165 137 176.5 162.5 Q188 188 212 231 L387 545 L500 545 L505 231 Q506 187 505 161.5 Q504 136 501 129 L504 129 Q504 136 516 161.5 Q528 187 552 231 L721 545 L837 545 L526 0 L413 0 L404 297 Q403 338 403.5 363.5 Q404 389 407 399 L404 399 Q403 388 390.5 362.5 Q378 337 355 297 Z " />
<glyph glyph-name="x" unicode="x" horiz-adv-x="526" d="M210 197 L45 0 L-83 0 L172 292 L74 545 L193 545 L256 364 L259 364 L407 545 L538 544 L294 267 L402 0 L283 0 L213 197 L210 197 Z " />
<glyph glyph-name="y" unicode="y" horiz-adv-x="522" d="M214 0 Q130 -136 66 -181 Q2 -226 -90 -233 Q-98 -234 -107 -234 Q-116 -234 -135 -234 L-108 -134 Q-91 -134 -83 -133.5 Q-75 -133 -69 -132 Q-9 -122 33.5 -88 Q76 -54 102 5 L53 545 L172 545 L190 203 Q192 167 191.5 147 Q191 127 188 122 L191 122 Q192 127 202.5 147 Q213 167 233 203 L428 545 L555 545 L214 0 Z " />
<glyph glyph-name="yacute" unicode="&#xfd;" horiz-adv-x="522" d="M579 822 L334 646 L287 706 L500 903 L579 822 Z M214 0 Q130 -136 66 -181 Q2 -226 -90 -233 Q-98 -234 -107 -234 Q-116 -234 -135 -234 L-108 -134 Q-91 -134 -83 -133.5 Q-75 -133 -69 -132 Q-9 -122 33.5 -88 Q76 -54 102 5 L53 545 L172 545 L190 203 Q192 167 191.5 147 Q191 127 188 122 L191 122 Q192 127 202.5 147 Q213 167 233 203 L428 545 L555 545 L214 0 Z " />
<glyph glyph-name="ydieresis" unicode="&#xff;" horiz-adv-x="522" d="M506 852 Q539 852 555.5 829.5 Q572 807 563 774 Q554 741 526 718.5 Q498 696 464 696 Q431 696 414.5 718.5 Q398 741 407 774 Q416 807 444.5 829.5 Q473 852 506 852 Z M286 852 Q319 852 335.5 829.5 Q352 807 343 774 Q334 741 306 718.5 Q278 696 244 696 Q211 696 194.5 718.5 Q178 741 187 774 Q196 807 224.5 829.5 Q253 852 286 852 Z M214 0 Q130 -136 66 -181 Q2 -226 -90 -233 Q-98 -234 -107 -234 Q-116 -234 -135 -234 L-108 -134 Q-91 -134 -83 -133.5 Q-75 -133 -69 -132 Q-9 -122 33.5 -88 Q76 -54 102 5 L53 545 L172 545 L190 203 Q192 167 191.5 147 Q191 127 188 122 L191 122 Q192 127 202.5 147 Q213 167 233 203 L428 545 L555 545 L214 0 Z " />
<glyph glyph-name="ycircumflex" unicode="&#x177;" horiz-adv-x="522" d="M380 760 L242 637 L189 688 L357 863 L442 863 L519 682 L445 637 L380 760 Z M214 0 Q130 -136 66 -181 Q2 -226 -90 -233 Q-98 -234 -107 -234 Q-116 -234 -135 -234 L-108 -134 Q-91 -134 -83 -133.5 Q-75 -133 -69 -132 Q-9 -122 33.5 -88 Q76 -54 102 5 L53 545 L172 545 L190 203 Q192 167 191.5 147 Q191 127 188 122 L191 122 Q192 127 202.5 147 Q213 167 233 203 L428 545 L555 545 L214 0 Z " />
<glyph glyph-name="ygrave" unicode="&#x1ef3;" horiz-adv-x="522" d="M285 897 L426 702 L370 647 L194 824 L285 897 Z M214 0 Q130 -136 66 -181 Q2 -226 -90 -233 Q-98 -234 -107 -234 Q-116 -234 -135 -234 L-108 -134 Q-91 -134 -83 -133.5 Q-75 -133 -69 -132 Q-9 -122 33.5 -88 Q76 -54 102 5 L53 545 L172 545 L190 203 Q192 167 191.5 147 Q191 127 188 122 L191 122 Q192 127 202.5 147 Q213 167 233 203 L428 545 L555 545 L214 0 Z " />
<glyph glyph-name="z" unicode="z" horiz-adv-x="508" d="M382 99 L355 0 L-43 0 L-16 98 L326 443 L324 446 L88 446 L114 545 L490 545 L463 446 L122 102 L125 99 L382 99 Z " />
<glyph glyph-name="zacute" unicode="&#x17a;" horiz-adv-x="508" d="M568 822 L323 646 L276 706 L489 903 L568 822 Z M382 99 L355 0 L-43 0 L-16 98 L326 443 L324 446 L88 446 L114 545 L490 545 L463 446 L122 102 L125 99 L382 99 Z " />
<glyph glyph-name="zdotaccent" unicode="&#x17c;" horiz-adv-x="508" d="M445 751 Q436 718 408 695.5 Q380 673 346 673 Q313 673 296.5 695.5 Q280 718 289 751 Q298 784 326.5 806.5 Q355 829 388 829 Q421 829 437.5 806.5 Q454 784 445 751 Z M382 99 L355 0 L-43 0 L-16 98 L326 443 L324 446 L88 446 L114 545 L490 545 L463 446 L122 102 L125 99 L382 99 Z " />
<glyph glyph-name="zcaron" unicode="&#x17e;" horiz-adv-x="508" d="M343 744 L481 867 L534 816 L366 641 L281 641 L204 822 L278 867 L343 744 Z M382 99 L355 0 L-43 0 L-16 98 L326 443 L324 446 L88 446 L114 545 L490 545 L463 446 L122 102 L125 99 L382 99 Z " />
<glyph glyph-name="ordfeminine" unicode="&#xaa;" horiz-adv-x="446" d="M296 479 Q275 459 246.5 448.5 Q218 438 186 438 Q136 438 110.5 473.5 Q85 509 100 558 Q114 606 164 631.5 Q214 657 295 657 L334 657 Q335 660 335.5 663 Q336 666 337 669 Q343 693 330 704 Q317 715 283 715 Q251 715 220.5 710 Q190 705 160 694 L184 784 Q217 793 249 797.5 Q281 802 313 802 Q394 802 424.5 762.5 Q455 723 434 646 L380 445 L302 445 L298 478 L296 479 Z M285 591 Q245 591 225 582.5 Q205 574 200 553 Q196 536 205.5 526 Q215 516 234 516 Q257 516 279 524.5 Q301 533 312 544 L325 591 L285 591 Z M395 374 L367 273 L31 273 L59 374 L395 374 Z " />
<glyph glyph-name="ordmasculine" unicode="&#xba;" horiz-adv-x="466" d="M458 597 Q438 521 382.5 479 Q327 437 247 438 Q164 440 127 498 Q90 556 114 647 Q133 720 187.5 760.5 Q242 801 320 800 Q406 799 443.5 743 Q481 687 458 597 Z M356 604 Q369 659 355.5 687.5 Q342 716 304 716 Q272 716 247.5 694 Q223 672 215 635 Q202 580 215 551.5 Q228 523 267 522 Q299 521 323 543.5 Q347 566 356 604 Z M400 374 L372 273 L36 273 L64 374 L400 374 Z " />
<glyph glyph-name="schwa" unicode="&#x259;" horiz-adv-x="559" d="M160 517 Q211 538 252 547.5 Q293 557 331 557 Q446 557 500 481 Q554 405 530 277 Q505 139 418 62 Q331 -15 213 -10 Q88 -5 55.5 90 Q23 185 94 317 L428 317 Q440 386 408 422 Q376 458 303 458 Q267 458 225 447.5 Q183 437 132 415 L160 517 Z M163 229 Q135 170 154.5 125 Q174 80 232 79 Q296 77 342.5 116.5 Q389 156 408 229 L163 229 Z " />
<glyph glyph-name="litre" unicode="&#x2113;" horiz-adv-x="460" d="M291 9 Q269 0 234.5 -5 Q200 -10 170 -10 Q108 -10 78.5 26.5 Q49 63 54 133 L-5 91 L-36 163 L76 241 L163 563 Q194 679 254.5 740.5 Q315 802 397 802 Q471 802 497 748.5 Q523 695 498 601 Q470 494 391.5 398 Q313 302 182 212 Q167 138 179.5 114 Q192 90 234 90 Q254 90 277.5 94 Q301 98 317 104 L291 9 Z M270 546 L212 327 Q283 383 323 443.5 Q363 504 384 584 Q401 648 397 676.5 Q393 705 366 705 Q335 705 314.5 670 Q294 635 270 546 Z " />
<glyph glyph-name="ampersand" unicode="&#x26;" horiz-adv-x="729" d="M247 568 Q231 509 272.5 476 Q314 443 394 443 L704 443 L677 342 L545 342 L508 206 Q491 140 499.5 115 Q508 90 548 90 Q565 90 584 93.5 Q603 97 624 104 L598 8 Q571 -2 546 -6.5 Q521 -11 497 -11 Q449 -11 420.5 8 Q392 27 381 64 Q366 49 346 36 Q326 23 300 12 Q273 1 244.5 -5 Q216 -11 187 -11 Q91 -11 45 57 Q-1 125 29 229 Q46 287 93 333.5 Q140 380 198 398 L198 400 Q151 425 135 477.5 Q119 530 139 601 Q159 677 237 725.5 Q315 774 421 774 Q474 774 522 763 Q570 752 598 733 L569 622 Q556 633 537 642.5 Q518 652 493 659 Q473 665 452 668 Q431 671 409 671 Q344 671 302.5 644.5 Q261 618 247 568 Z M142 216 Q126 158 152 123.5 Q178 89 238 89 Q282 89 320.5 105.5 Q359 122 380 150 L432 342 L367 342 Q266 342 212.5 311 Q159 280 142 216 Z " />
<glyph glyph-name="i.superior" unicode="&#x2071;" horiz-adv-x="242" d="M306 752 Q299 724 275 705.5 Q251 687 223 687 Q195 687 181 706 Q167 725 174 752 Q181 780 205.5 799 Q230 818 258 818 Q286 818 300 799 Q314 780 306 752 Z M258 623 L164 273 L60 273 L154 623 L258 623 Z " />
<glyph glyph-name="n.superior" unicode="&#x207f;" horiz-adv-x="466" d="M220 521 L154 273 L50 273 L144 623 L248 623 L241 599 L243 597 Q269 613 298 621.5 Q327 630 358 630 Q411 630 432.5 595.5 Q454 561 437 499 L376 273 L273 273 L327 474 Q337 512 330 528 Q323 544 297 544 Q278 544 255.5 537.5 Q233 531 220 521 Z " />
<glyph glyph-name="zero.slash" unicode="&#xe12f;" horiz-adv-x="691" d="M609 339 Q564 176 469 82.5 Q374 -11 247 -11 Q106 -11 64 98 Q22 207 80 422 Q125 587 219.5 680.5 Q314 774 442 774 Q583 774 625 663 Q667 552 609 339 Z M190 392 Q170 313 164.5 256.5 Q159 200 168 165 L448 666 Q441 668 433 668.5 Q425 669 417 669 Q339 669 282 599.5 Q225 530 190 392 Z M498 367 Q518 443 524 498.5 Q530 554 522 590 L246 96 Q251 95 257.5 94.5 Q264 94 270 94 Q348 94 406 163 Q464 232 498 367 Z " />
<glyph glyph-name="zero" unicode="0" horiz-adv-x="691" d="M609 339 Q564 176 469 82.5 Q374 -11 247 -11 Q106 -11 64 98 Q22 207 80 422 Q125 587 219.5 680.5 Q314 774 442 774 Q583 774 625 663 Q667 552 609 339 Z M498 367 Q540 527 520 598 Q500 669 417 669 Q339 669 282 599.5 Q225 530 190 392 Q149 233 169 163.5 Q189 94 270 94 Q348 94 406 163 Q464 232 498 367 Z " />
<glyph glyph-name="one" unicode="1" horiz-adv-x="537" d="M417 103 L389 0 L-34 0 L-6 103 L148 103 L271 564 L108 564 L132 654 Q154 654 173.5 656.5 Q193 659 211 664 Q231 670 248 679 Q265 688 279 700 Q297 715 308.5 730.5 Q320 746 324 763 L439 763 L263 103 L417 103 Z " />
<glyph glyph-name="two" unicode="2" horiz-adv-x="581" d="M436 103 L408 0 L-43 0 L-10 123 Q248 318 329 400.5 Q410 483 427 549 Q443 609 418 640.5 Q393 672 331 672 Q284 672 228.5 652 Q173 632 129 600 L159 717 Q205 745 261 760 Q317 775 371 775 Q474 775 522.5 711 Q571 647 544 549 Q520 460 431 364.5 Q342 269 127 106 L130 103 L436 103 Z " />
<glyph glyph-name="three" unicode="3" horiz-adv-x="569" d="M154 -11 Q129 -11 105.5 -9 Q82 -7 61 -3 Q30 3 8.5 11.5 Q-13 20 -25 30 L6 144 Q19 133 38.5 123.5 Q58 114 83 107 Q103 102 124.5 99 Q146 96 169 96 Q244 96 292 124 Q340 152 354 204 Q372 272 332.5 307 Q293 342 200 342 L126 342 L153 443 L240 443 Q320 443 372.5 472.5 Q425 502 437 557 Q449 612 421 641.5 Q393 671 328 671 Q306 671 282.5 667.5 Q259 664 235 657 Q209 650 187.5 641 Q166 632 148 622 L178 736 Q214 754 266.5 764 Q319 774 372 774 Q474 774 525.5 717.5 Q577 661 559 577 Q546 515 503 467.5 Q460 420 399 400 L399 398 Q448 378 467.5 320.5 Q487 263 467 191 Q440 95 358 42 Q276 -11 154 -11 Z " />
<glyph glyph-name="four" unicode="4" horiz-adv-x="651" d="M275 0 L323 179 L-5 179 L21 275 L458 763 L594 763 L464 275 L552 275 L526 179 L438 179 L390 0 L275 0 Z M148 278 L151 275 L349 275 L420 517 Q425 534 429.5 551 Q434 568 441 596 Q445 612 447 619.5 Q449 627 451 633 L448 633 Q442 624 418.5 595 Q395 566 353 517 L148 278 Z " />
<glyph glyph-name="five" unicode="5" horiz-adv-x="601" d="M171 -11 Q144 -11 120 -9 Q96 -7 74 -3 Q41 3 18.5 11 Q-4 19 -15 30 L15 143 Q28 131 48 121 Q68 111 95 103 Q115 98 137.5 95 Q160 92 184 92 Q256 92 305 125 Q354 158 369 216 Q384 274 361.5 309 Q339 344 280 357 Q253 363 216.5 364.5 Q180 366 88 360 L197 764 L593 764 L565 661 L284 661 L231 461 Q385 471 451 403.5 Q517 336 483 205 Q457 107 373.5 48 Q290 -11 171 -11 Z " />
<glyph glyph-name="six" unicode="6" horiz-adv-x="643" d="M532 209 Q509 110 432 49 Q355 -12 249 -12 Q113 -12 67.5 96.5 Q22 205 74 407 Q120 582 226.5 678 Q333 774 487 774 Q525 774 563.5 766 Q602 758 638 743 L608 629 Q568 651 532 661 Q496 671 463 669 Q362 664 295 603 Q228 542 196 424 Q231 451 274.5 465 Q318 479 368 479 Q468 479 514 403.5 Q560 328 532 209 Z M418 217 Q436 294 410 338.5 Q384 383 319 383 Q275 383 236.5 369 Q198 355 173 331 Q145 212 168.5 149.5 Q192 87 266 87 Q323 87 363.5 122.5 Q404 158 418 217 Z " />
<glyph glyph-name="seven" unicode="7" horiz-adv-x="534" d="M565 651 L108 0 L-20 0 L447 657 L447 660 L104 660 L131 763 L595 763 L565 651 Z " />
<glyph glyph-name="eight" unicode="8" horiz-adv-x="674" d="M560 186 Q535 93 450.5 39.5 Q366 -14 243 -11 Q123 -9 64 54.5 Q5 118 32 219 Q47 277 105.5 332 Q164 387 230 406 Q182 435 161.5 485.5 Q141 536 156 596 Q175 674 252.5 725.5 Q330 777 432 774 Q540 771 593 713.5 Q646 656 621 567 Q607 517 562 471 Q517 425 463 405 Q526 368 552 310.5 Q578 253 560 186 Z M503 565 Q517 617 491.5 648 Q466 679 405 678 Q355 677 317.5 652 Q280 627 270 587 Q258 540 287.5 502.5 Q317 465 380 446 Q428 466 461 497.5 Q494 529 503 565 Z M445 195 Q460 254 425 295.5 Q390 337 304 361 Q249 343 204.5 302.5 Q160 262 148 217 Q132 157 162.5 122.5 Q193 88 263 85 Q332 82 381.5 112 Q431 142 445 195 Z " />
<glyph glyph-name="nine" unicode="9" horiz-adv-x="643" d="M111 553 Q134 652 211 713 Q288 774 394 774 Q530 774 575.5 665 Q621 556 569 355 Q523 180 416.5 84 Q310 -12 156 -12 Q118 -12 79.5 -4 Q41 4 5 19 L35 133 Q75 111 111 101 Q147 91 180 93 Q281 98 348 159 Q415 220 447 338 Q412 311 368.5 297 Q325 283 275 283 Q175 283 129 358.5 Q83 434 111 553 Z M225 545 Q207 468 233 423.5 Q259 379 324 379 Q368 379 406.5 393 Q445 407 470 431 Q498 550 474.5 612.5 Q451 675 377 675 Q320 675 279.5 639.5 Q239 604 225 545 Z " />
<glyph glyph-name="dollar" unicode="&#x24;" horiz-adv-x="570" d="M455 180 Q438 107 380 59.5 Q322 12 234 -4 L214 -78 L102 -78 L120 -10 Q75 -8 37.5 1.5 Q0 11 -34 29 L-2 149 Q29 123 74 109 Q119 95 169 95 Q234 95 279 121 Q324 147 334 189 Q344 230 327.5 263.5 Q311 297 240 350 Q190 387 169 409 Q148 431 135 455 Q119 486 116 522.5 Q113 559 124 602 Q140 666 194 709.5 Q248 753 328 767 L356 870 L468 870 L442 773 Q480 770 511.5 761 Q543 752 568 737 L535 611 Q513 636 471.5 650.5 Q430 665 381 665 Q326 665 289 644 Q252 623 243 587 Q232 546 248.5 513 Q265 480 336 428 Q386 392 407.5 370 Q429 348 441 325 Q458 294 461.5 258 Q465 222 455 180 Z " />
<glyph glyph-name="cent" unicode="&#xa2;" horiz-adv-x="484" d="M371 136 Q345 123 317 114.5 Q289 106 261 102 L234 0 L122 0 L150 108 Q72 132 42.5 213 Q13 294 41 410 Q69 522 134.5 586 Q200 650 299 663 L326 763 L438 763 L411 661 Q435 658 455 651 Q475 644 487 634 L458 526 Q435 545 404 555 Q373 565 338 565 Q265 565 218 522 Q171 479 151 392 Q131 304 155.5 254 Q180 204 244 200 Q280 198 324 210 Q368 222 399 241 L371 136 Z " />
<glyph glyph-name="sterling" unicode="&#xa3;" horiz-adv-x="634" d="M497 101 L470 0 L-34 0 L-7 101 L68 101 Q96 130 115.5 160 Q135 190 147 221 Q157 246 162 273 Q167 300 168 342 L68 342 L95 443 L168 443 Q168 499 172 531.5 Q176 564 185 594 Q210 679 282.5 726 Q355 773 463 773 Q518 773 564 760.5 Q610 748 639 725 L607 604 Q586 633 547 651 Q508 669 461 669 Q389 669 347.5 643 Q306 617 291 563 Q288 549 286 516 Q284 483 283 443 L545 443 L518 342 L279 342 Q278 328 277 315.5 Q276 303 274 293 Q266 233 245.5 185.5 Q225 138 192 101 L497 101 Z " />
<glyph glyph-name="yen" unicode="&#xa5;" horiz-adv-x="645" d="M512 155 L322 155 L281 0 L161 0 L202 155 L8 155 L36 256 L229 256 L253 345 L51 345 L79 446 L219 446 L106 763 L233 763 L314 525 Q320 507 325 488.5 Q330 470 333 451 L336 451 Q348 470 361 488 Q374 506 387 522 L586 763 L731 763 L458 446 L583 446 L555 345 L373 345 L349 256 L540 256 L512 155 Z " />
<glyph glyph-name="Euro" unicode="&#x20ac;" horiz-adv-x="679" d="M539 44 Q491 17 434 3 Q377 -11 318 -11 Q239 -11 183.5 29 Q128 69 104 143 Q97 165 92.5 190 Q88 215 87 242 L-31 242 L-3 343 L94 343 Q97 362 101.5 382.5 Q106 403 112 424 L113 429 L16 429 L44 530 L153 530 Q211 644 311.5 709 Q412 774 537 774 Q591 774 640 760 Q689 746 715 722 L684 605 Q650 634 607 649.5 Q564 665 519 665 Q449 665 387 629 Q325 593 283 530 L548 530 L520 429 L234 429 Q232 424 230.5 419 Q229 414 228 409 Q223 392 219.5 375.5 Q216 359 214 343 L501 343 L473 242 L209 242 Q216 173 255 136 Q294 99 362 99 Q409 99 463 116.5 Q517 134 571 167 L539 44 Z " />
<glyph glyph-name="florin" unicode="&#x192;" horiz-adv-x="378" d="M134 8 Q89 -124 13.5 -179.5 Q-62 -235 -191 -235 L-205 -235 L-178 -134 Q-93 -134 -50 -103 Q-7 -72 17 -2 L134 347 L40 347 L66 442 L166 442 L204 556 Q242 668 305 719 Q368 770 465 770 Q482 770 499.5 767 Q517 764 530 759 L500 649 Q491 656 474.5 661 Q458 666 441 666 Q396 666 365 634 Q334 602 310 530 L280 442 L405 442 L379 347 L248 347 L134 8 Z " />
<glyph glyph-name="numbersign" unicode="&#x23;" horiz-adv-x="786" d="M264 0 L379 210 L221 210 L106 0 L-6 0 L109 210 L14 210 L41 311 L164 311 L237 444 L149 444 L176 545 L293 545 L412 763 L524 763 L405 545 L563 545 L682 763 L794 763 L675 545 L770 545 L743 444 L619 444 L546 311 L635 311 L608 210 L491 210 L376 0 L264 0 Z M276 311 L434 311 L507 444 L349 444 L276 311 Z " />
<glyph glyph-name="zeroinferior" unicode="&#x2080;" horiz-adv-x="530" d="M390 21 Q357 -102 287.5 -166.5 Q218 -231 117 -231 Q16 -231 -18.5 -166.5 Q-53 -102 -20 21 Q13 144 82.5 208.5 Q152 273 252 273 Q353 273 388 208.5 Q423 144 390 21 Z M284 21 Q306 103 292 142 Q278 181 228 181 Q178 181 143 142 Q108 103 86 21 Q64 -61 78 -100 Q92 -139 142 -139 Q192 -139 227 -100 Q262 -61 284 21 Z " />
<glyph glyph-name="oneinferior" unicode="&#x2081;" horiz-adv-x="406" d="M241 -135 L217 -224 L-95 -224 L-71 -135 L35 -135 L104 121 L-6 121 L14 199 Q29 199 42 200.5 Q55 202 66 205 Q80 208 91 213.5 Q102 219 112 226 Q124 235 132 245 Q140 255 142 266 L242 266 L135 -135 L241 -135 Z " />
<glyph glyph-name="twoinferior" unicode="&#x2082;" horiz-adv-x="443" d="M257 -138 L234 -224 L-99 -224 L-73 -128 Q-58 -117 -0.5 -75.5 Q57 -34 86 -13 Q154 38 183.5 68.5 Q213 99 220 125 Q227 154 209 170 Q191 186 151 186 Q116 186 78 175.5 Q40 165 8 146 L33 239 Q66 255 107.5 264.5 Q149 274 188 274 Q265 274 301.5 232 Q338 190 318 119 Q305 71 245.5 13.5 Q186 -44 54 -136 L55 -138 L257 -138 Z " />
<glyph glyph-name="threeinferior" unicode="&#x2083;" horiz-adv-x="433" d="M281 -97 Q266 -159 201.5 -195 Q137 -231 41 -231 Q0 -231 -31 -225 Q-62 -219 -82 -208 L-56 -111 Q-44 -118 -29.5 -123.5 Q-15 -129 4 -133 Q20 -137 36 -139 Q52 -141 68 -141 Q114 -141 145 -124 Q176 -107 184 -78 Q192 -48 168 -33.5 Q144 -19 78 -19 L22 -19 L46 70 L114 70 Q162 70 193 86 Q224 102 232 131 Q239 157 221.5 170 Q204 183 162 183 Q145 183 127 180.5 Q109 178 90 172 Q70 167 53 160 Q36 153 22 145 L49 245 Q77 258 117 265.5 Q157 273 199 273 Q277 273 314.5 234 Q352 195 335 134 Q326 101 296 72 Q266 43 228 30 L228 28 Q262 19 277 -16 Q292 -51 281 -97 Z " />
<glyph glyph-name="fourinferior" unicode="&#x2084;" horiz-adv-x="490" d="M122 -224 L151 -115 L-83 -115 L-61 -33 L233 266 L354 266 L275 -31 L335 -31 L312 -115 L252 -115 L223 -224 L122 -224 Z M49 -29 L51 -31 L174 -31 L209 87 Q210 91 215.5 109 Q221 127 230 160 L228 160 Q228 160 217.5 147 Q207 134 197 123 Q189 113 180.5 104 Q172 95 164 87 L49 -29 Z " />
<glyph glyph-name="fiveinferior" unicode="&#x2085;" horiz-adv-x="457" d="M293 -77 Q276 -149 210.5 -190 Q145 -231 43 -231 Q1 -231 -29.5 -225.5 Q-60 -220 -79 -210 L-53 -111 Q-28 -125 3.5 -132 Q35 -139 73 -139 Q118 -139 149.5 -121.5 Q181 -104 189 -75 Q202 -29 158 -10.5 Q114 8 -12 -1 L59 266 L356 266 L333 177 L138 177 L112 81 Q219 88 265.5 47 Q312 6 293 -77 Z " />
<glyph glyph-name="sixinferior" unicode="&#x2086;" horiz-adv-x="493" d="M330 -76 Q314 -147 254 -190 Q194 -233 112 -230 Q17 -226 -17 -159 Q-51 -92 -20 32 Q9 151 85.5 213.5 Q162 276 276 274 Q308 273 338 268 Q368 263 391 254 L364 154 Q335 169 308 176.5 Q281 184 254 184 Q189 184 147.5 152 Q106 120 90 59 Q119 74 149 82 Q179 90 209 89 Q280 88 313 43 Q346 -2 330 -76 Z M230 -69 Q239 -30 221.5 -10.5 Q204 9 162 9 Q136 9 112 2 Q88 -5 70 -18 Q54 -79 70 -111 Q86 -143 134 -143 Q171 -143 197 -123 Q223 -103 230 -69 Z " />
<glyph glyph-name="seveninferior" unicode="&#x2087;" horiz-adv-x="413" d="M334 179 L37 -224 L-81 -224 L221 171 L221 173 L-10 173 L14 266 L357 266 L334 179 Z " />
<glyph glyph-name="eightinferior" unicode="&#x2088;" horiz-adv-x="511" d="M340 -94 Q325 -154 261 -192.5 Q197 -231 115 -231 Q24 -231 -21 -189.5 Q-66 -148 -47 -80 Q-38 -49 -5 -19 Q28 11 76 32 Q43 53 33.5 81 Q24 109 34 147 Q49 203 105 238 Q161 273 238 273 Q314 273 353 233.5 Q392 194 377 134 Q371 109 342 82.5 Q313 56 277 41 Q322 18 337 -15 Q352 -48 340 -94 Z M275 131 Q282 157 266.5 173 Q251 189 217 189 Q185 189 161.5 174.5 Q138 160 132 138 Q127 117 145.5 101.5 Q164 86 210 73 Q238 85 254.5 99.5 Q271 114 275 131 Z M241 -86 Q248 -60 222.5 -39.5 Q197 -19 137 -3 Q105 -17 82.5 -37 Q60 -57 54 -78 Q46 -109 66.5 -127.5 Q87 -146 129 -146 Q173 -146 203.5 -130 Q234 -114 241 -86 Z " />
<glyph glyph-name="nineinferior" unicode="&#x2089;" horiz-adv-x="493" d="M2 119 Q18 190 78 233 Q138 276 220 273 Q315 269 349 202 Q383 135 352 11 Q323 -108 246.5 -170.5 Q170 -233 56 -231 Q24 -230 -6 -225 Q-36 -220 -59 -211 L-32 -111 Q-3 -126 24 -133.5 Q51 -141 78 -141 Q143 -141 184.5 -109 Q226 -77 242 -16 Q213 -31 183 -39 Q153 -47 123 -46 Q52 -45 19 0 Q-14 45 2 119 Z M102 112 Q93 73 110.5 53.5 Q128 34 170 34 Q196 34 220 41 Q244 48 262 61 Q278 122 262 154 Q246 186 198 186 Q161 186 135 166 Q109 146 102 112 Z " />
<glyph glyph-name="zerosuperior" unicode="&#x2070;" horiz-adv-x="530" d="M508 518 Q475 395 405.5 330.5 Q336 266 235 266 Q134 266 99.5 330.5 Q65 395 98 518 Q131 641 200.5 705.5 Q270 770 370 770 Q471 770 506 705.5 Q541 641 508 518 Z M402 518 Q424 600 410 639 Q396 678 346 678 Q296 678 261 639 Q226 600 204 518 Q182 436 196 397 Q210 358 260 358 Q310 358 345 397 Q380 436 402 518 Z " />
<glyph glyph-name="onesuperior" unicode="&#xb9;" horiz-adv-x="406" d="M361 362 L337 273 L25 273 L49 362 L155 362 L224 618 L114 618 L134 696 Q149 696 162 697.5 Q175 699 186 702 Q200 705 211 710.5 Q222 716 232 723 Q244 732 252 742 Q260 752 262 763 L362 763 L255 362 L361 362 Z " />
<glyph glyph-name="twosuperior" unicode="&#xb2;" horiz-adv-x="443" d="M377 359 L354 273 L21 273 L47 369 Q62 380 119.5 421.5 Q177 463 206 484 Q274 535 303.5 565.5 Q333 596 340 622 Q347 651 329 667 Q311 683 271 683 Q236 683 198 672.5 Q160 662 128 643 L153 736 Q186 752 227.5 761.5 Q269 771 308 771 Q385 771 421.5 729 Q458 687 438 616 Q425 568 365.5 510.5 Q306 453 174 361 L175 359 L377 359 Z " />
<glyph glyph-name="threesuperior" unicode="&#xb3;" horiz-adv-x="433" d="M398 400 Q383 338 318.5 302 Q254 266 158 266 Q117 266 86 272 Q55 278 35 289 L61 386 Q73 379 87.5 373.5 Q102 368 121 364 Q137 360 153 358 Q169 356 185 356 Q231 356 262 373 Q293 390 301 419 Q309 449 285 463.5 Q261 478 195 478 L139 478 L163 567 L231 567 Q279 567 310 583 Q341 599 349 628 Q356 654 338.5 667 Q321 680 279 680 Q262 680 244 677.5 Q226 675 207 669 Q187 664 170 657 Q153 650 139 642 L166 742 Q194 755 234 762.5 Q274 770 316 770 Q394 770 431.5 731 Q469 692 452 631 Q443 598 413 569 Q383 540 345 527 L345 525 Q379 516 394 481 Q409 446 398 400 Z " />
<glyph glyph-name="foursuperior" unicode="&#x2074;" horiz-adv-x="490" d="M245 273 L274 382 L40 382 L62 464 L356 763 L477 763 L398 466 L458 466 L435 382 L375 382 L346 273 L245 273 Z M172 468 L174 466 L297 466 L332 584 Q333 588 338.5 606 Q344 624 353 657 L351 657 Q351 657 340.5 644 Q330 631 320 620 Q312 610 303.5 601 Q295 592 287 584 L172 468 Z " />
<glyph glyph-name="fivesuperior" unicode="&#x2075;" horiz-adv-x="457" d="M412 420 Q395 348 329.5 307 Q264 266 162 266 Q120 266 89.5 271.5 Q59 277 40 287 L66 386 Q91 372 122.5 365 Q154 358 192 358 Q237 358 268.5 375.5 Q300 393 308 422 Q321 468 277 486.5 Q233 505 107 496 L178 763 L475 763 L452 674 L257 674 L231 578 Q338 585 384.5 544 Q431 503 412 420 Z " />
<glyph glyph-name="sixsuperior" unicode="&#x2076;" horiz-adv-x="493" d="M450 421 Q434 350 374 307 Q314 264 232 267 Q137 271 103 338 Q69 405 100 529 Q129 648 205.5 710.5 Q282 773 396 771 Q428 770 458 765 Q488 760 511 751 L484 651 Q455 666 428 673.5 Q401 681 374 681 Q309 681 267.5 649 Q226 617 210 556 Q239 571 269 579 Q299 587 329 586 Q400 585 433 540 Q466 495 450 421 Z M350 428 Q359 467 341.5 486.5 Q324 506 282 506 Q256 506 232 499 Q208 492 190 479 Q174 418 190 386 Q206 354 254 354 Q291 354 317 374 Q343 394 350 428 Z " />
<glyph glyph-name="sevensuperior" unicode="&#x2077;" horiz-adv-x="413" d="M452 676 L155 273 L37 273 L339 668 L339 670 L108 670 L132 763 L475 763 L452 676 Z " />
<glyph glyph-name="eightsuperior" unicode="&#x2078;" horiz-adv-x="511" d="M457 403 Q442 343 378 304.5 Q314 266 232 266 Q141 266 96 307.5 Q51 349 70 417 Q79 448 112 478 Q145 508 193 529 Q160 550 150.5 578 Q141 606 151 644 Q166 700 222 735 Q278 770 355 770 Q431 770 470 730.5 Q509 691 494 631 Q488 606 459 579.5 Q430 553 394 538 Q439 515 454 482 Q469 449 457 403 Z M392 628 Q399 654 383.5 670 Q368 686 334 686 Q302 686 278.5 671.5 Q255 657 249 635 Q244 614 262.5 598.5 Q281 583 327 570 Q355 582 371.5 596.5 Q388 611 392 628 Z M358 411 Q365 437 339.5 457.5 Q314 478 254 494 Q222 480 199.5 460 Q177 440 171 419 Q163 388 183.5 369.5 Q204 351 246 351 Q290 351 320.5 367 Q351 383 358 411 Z " />
<glyph glyph-name="ninesuperior" unicode="&#x2079;" horiz-adv-x="493" d="M123 616 Q139 687 199 730 Q259 773 341 770 Q436 766 470 699 Q504 632 473 508 Q444 389 367.5 326.5 Q291 264 177 266 Q145 267 115 272 Q85 277 62 286 L89 386 Q118 371 145 363.5 Q172 356 199 356 Q264 356 305.5 388 Q347 420 363 481 Q334 466 304 458 Q274 450 244 451 Q173 452 140 497 Q107 542 123 616 Z M223 609 Q214 570 231.5 550.5 Q249 531 291 531 Q317 531 341 538 Q365 545 383 558 Q399 619 383 651 Q367 683 319 683 Q282 683 256 663 Q230 643 223 609 Z " />
<glyph glyph-name="percent" unicode="&#x25;" horiz-adv-x="1240" d="M504 518 Q471 395 401.5 330.5 Q332 266 231 266 Q130 266 95.5 330.5 Q61 395 94 518 Q127 641 196.5 705.5 Q266 770 366 770 Q467 770 502 705.5 Q537 641 504 518 Z M986 763 L404 0 L272 0 L854 763 L986 763 Z M398 518 Q420 600 406 639 Q392 678 342 678 Q292 678 257 639 Q222 600 200 518 Q178 436 192 397 Q206 358 256 358 Q306 358 341 397 Q376 436 398 518 Z M1174 241 Q1141 118 1071.5 53.5 Q1002 -11 901 -11 Q800 -11 765.5 53.5 Q731 118 764 241 Q797 364 866.5 428.5 Q936 493 1036 493 Q1137 493 1172 428.5 Q1207 364 1174 241 Z M1068 241 Q1090 323 1076 362 Q1062 401 1012 401 Q962 401 927 362 Q892 323 870 241 Q848 159 862 120 Q876 81 926 81 Q976 81 1011 120 Q1046 159 1068 241 Z " />
<glyph glyph-name="perthousand" unicode="&#x2030;" horiz-adv-x="1721" d="M501 519 Q468 396 398.5 331.5 Q329 267 228 267 Q127 267 92.5 331.5 Q58 396 91 519 Q124 642 193.5 706.5 Q263 771 363 771 Q464 771 499 706.5 Q534 642 501 519 Z M983 764 L401 1 L269 1 L851 764 L983 764 Z M395 519 Q417 601 403 640 Q389 679 339 679 Q289 679 254 640 Q219 601 197 519 Q175 437 189 398 Q203 359 253 359 Q303 359 338 398 Q373 437 395 519 Z M1171 242 Q1138 119 1068.5 54.5 Q999 -10 898 -10 Q797 -10 762.5 54.5 Q728 119 761 242 Q794 365 863.5 429.5 Q933 494 1033 494 Q1134 494 1169 429.5 Q1204 365 1171 242 Z M1679 241 Q1646 118 1576.5 53.5 Q1507 -11 1406 -11 Q1305 -11 1270.5 53.5 Q1236 118 1269 241 Q1302 364 1371.5 428.5 Q1441 493 1541 493 Q1642 493 1677 428.5 Q1712 364 1679 241 Z M1065 242 Q1087 324 1073 363 Q1059 402 1009 402 Q959 402 924 363 Q889 324 867 242 Q845 160 859 121 Q873 82 923 82 Q973 82 1008 121 Q1043 160 1065 242 Z M1573 241 Q1595 323 1581 362 Q1567 401 1517 401 Q1467 401 1432 362 Q1397 323 1375 241 Q1353 159 1367 120 Q1381 81 1431 81 Q1481 81 1516 120 Q1551 159 1573 241 Z " />
<glyph glyph-name="onequarter" unicode="&#xbc;" horiz-adv-x="1121" d="M373 362 L349 273 L37 273 L61 362 L167 362 L236 618 L126 618 L146 696 Q161 696 174 697.5 Q187 699 198 702 Q212 705 223 710.5 Q234 716 244 723 Q256 732 264 742 Q272 752 274 763 L374 763 L267 362 L373 362 Z M936 763 L354 0 L222 0 L804 763 L936 763 Z M830 0 L859 109 L625 109 L647 191 L941 490 L1062 490 L983 193 L1043 193 L1020 109 L960 109 L931 0 L830 0 Z M757 195 L759 193 L882 193 L917 311 Q918 315 923.5 333 Q929 351 938 384 L936 384 Q936 384 925.5 371 Q915 358 905 347 Q897 337 888.5 328 Q880 319 872 311 L757 195 Z " />
<glyph glyph-name="onehalf" unicode="&#xbd;" horiz-adv-x="1154" d="M373 362 L349 273 L37 273 L61 362 L167 362 L236 618 L126 618 L146 696 Q161 696 174 697.5 Q187 699 198 702 Q212 705 223 710.5 Q234 716 244 723 Q256 732 264 742 Q272 752 274 763 L374 763 L267 362 L373 362 Z M947 763 L365 0 L233 0 L815 763 L947 763 Z M1050 86 L1027 0 L694 0 L720 96 Q735 107 792.5 148.5 Q850 190 879 211 Q947 262 976.5 292.5 Q1006 323 1013 349 Q1020 378 1002 394 Q984 410 944 410 Q909 410 871 399.5 Q833 389 801 370 L826 463 Q859 479 900.5 488.5 Q942 498 981 498 Q1058 498 1094.5 456 Q1131 414 1111 343 Q1098 295 1038.5 237.5 Q979 180 847 88 L848 86 L1050 86 Z " />
<glyph glyph-name="threequarters" unicode="&#xbe;" horiz-adv-x="1107" d="M403 400 Q388 338 323.5 302 Q259 266 163 266 Q122 266 91 272 Q60 278 40 289 L66 386 Q78 379 92.5 373.5 Q107 368 126 364 Q142 360 158 358 Q174 356 190 356 Q236 356 267 373 Q298 390 306 419 Q314 449 290 463.5 Q266 478 200 478 L144 478 L168 567 L236 567 Q284 567 315 583 Q346 599 354 628 Q361 654 343.5 667 Q326 680 284 680 Q267 680 249 677.5 Q231 675 212 669 Q192 664 175 657 Q158 650 144 642 L171 742 Q199 755 239 762.5 Q279 770 321 770 Q399 770 436.5 731 Q474 692 457 631 Q448 598 418 569 Q388 540 350 527 L350 525 Q384 516 399 481 Q414 446 403 400 Z M925 763 L343 0 L211 0 L793 763 L925 763 Z M816 0 L845 109 L611 109 L633 191 L927 490 L1048 490 L969 193 L1029 193 L1006 109 L946 109 L917 0 L816 0 Z M743 195 L745 193 L868 193 L903 311 Q904 315 909.5 333 Q915 351 924 384 L922 384 Q922 384 911.5 371 Q901 358 891 347 Q883 337 874.5 328 Q866 319 858 311 L743 195 Z " />
<glyph glyph-name="plus" unicode="&#x2b;" horiz-adv-x="722" d="M579 222 L374 222 L317 10 L207 10 L264 222 L57 222 L84 322 L290 322 L347 534 L457 534 L400 322 L606 322 L579 222 Z " />
<glyph glyph-name="minus" unicode="&#x2212;" horiz-adv-x="724" d="M609 323 L581 222 L57 222 L85 323 L609 323 Z " />
<glyph glyph-name="plusminus" unicode="&#xb1;" horiz-adv-x="724" d="M552 111 L525 10 L1 10 L28 111 L234 111 L271 249 L65 249 L92 349 L298 349 L347 534 L457 534 L408 349 L614 349 L587 249 L381 249 L344 111 L552 111 Z " />
<glyph glyph-name="multiply" unicode="&#xd7;" horiz-adv-x="666" d="M495 114 L400 40 L284 198 L84 40 L29 114 L230 272 L114 430 L208 505 L324 347 L524 505 L578 430 L379 273 L495 114 Z " />
<glyph glyph-name="divide" unicode="&#xf7;" horiz-adv-x="724" d="M471 498 Q463 466 434 443 Q405 420 373 420 Q340 420 323.5 443 Q307 466 315 498 Q324 530 353 553 Q382 576 414 576 Q447 576 463.5 553 Q480 530 471 498 Z M609 323 L581 222 L57 222 L85 323 L609 323 Z M351 47 Q342 15 313 -8 Q284 -31 252 -31 Q219 -31 202.5 -8 Q186 15 195 47 Q203 79 232 102 Q261 125 293 125 Q326 125 342.5 102 Q359 79 351 47 Z " />
<glyph glyph-name="equal" unicode="&#x3d;" horiz-adv-x="724" d="M641 444 L614 343 L90 343 L117 444 L641 444 Z M576 202 L549 101 L25 101 L52 202 L576 202 Z " />
<glyph glyph-name="approxequal" unicode="&#x2248;" horiz-adv-x="724" d="M441 462 Q466 439 477.5 432 Q489 425 500 425 Q526 425 543 446 Q560 467 574 520 L681 520 Q661 420 607.5 363 Q554 306 479 306 Q448 306 420 319 Q392 332 351 370 Q326 394 314.5 400.5 Q303 407 293 407 Q266 407 249 386.5 Q232 366 218 312 L111 312 Q134 413 187 469.5 Q240 526 313 526 Q344 526 372 513 Q400 500 441 462 Z M364 175 Q389 152 400.5 145 Q412 138 423 138 Q449 138 466 159 Q483 180 497 233 L604 233 Q584 133 530.5 76 Q477 19 402 19 Q371 19 343 32 Q315 45 274 83 Q249 107 237.5 113.5 Q226 120 216 120 Q189 120 172 99 Q155 78 142 25 L35 25 Q57 126 110 182.5 Q163 239 236 239 Q267 239 295 226 Q323 213 364 175 Z " />
<glyph glyph-name="notequal" unicode="&#x2260;" horiz-adv-x="724" d="M549 101 L273 101 L205 0 L93 0 L161 101 L25 101 L52 202 L230 202 L325 343 L90 343 L117 444 L394 444 L462 545 L574 545 L506 444 L641 444 L614 343 L437 343 L342 202 L576 202 L549 101 Z " />
<glyph glyph-name="less" unicode="&#x3c;" horiz-adv-x="720" d="M562 109 L502 10 L70 224 L97 323 L631 532 L642 424 L218 268 L562 109 Z " />
<glyph glyph-name="greater" unicode="&#x3e;" horiz-adv-x="720" d="M587 224 L52 13 L43 117 L469 279 L120 440 L181 537 L613 323 L587 224 Z " />
<glyph glyph-name="lessequal" unicode="&#x2264;" horiz-adv-x="724" d="M590 247 L529 149 L82 314 L109 413 L633 574 L642 467 L243 357 L590 247 Z M568 101 L540 0 L16 0 L44 101 L568 101 Z " />
<glyph glyph-name="greaterequal" unicode="&#x2265;" horiz-adv-x="724" d="M597 313 L68 151 L61 247 L466 364 L122 481 L182 575 L623 412 L597 313 Z M566 101 L538 0 L14 0 L42 101 L566 101 Z " />
<glyph glyph-name="logicalnot" unicode="&#xac;" horiz-adv-x="724" d="M85 323 L609 323 L525 10 L415 10 L471 222 L57 222 L85 323 Z " />
<glyph glyph-name="fraction" unicode="&#x2044;" horiz-adv-x="506" d="M610 763 L28 0 L-104 0 L478 763 L610 763 Z " />
<glyph glyph-name="radical" unicode="&#x221a;" horiz-adv-x="705" d="M36 291 L63 392 L268 392 L279 218 Q282 187 281.5 167 Q281 147 279 137 L282 137 Q286 148 296.5 168 Q307 188 324 218 L644 763 L767 763 L299 0 L187 0 L156 291 L36 291 Z " />
<glyph glyph-name="infinity" unicode="&#x221e;" horiz-adv-x="869" d="M654 509 Q739 509 780.5 438.5 Q822 368 798 258 Q776 160 704 100 Q632 40 540 40 Q480 40 439 67.5 Q398 95 372 155 Q332 103 275 71.5 Q218 40 160 40 Q117 40 81 63 Q45 86 26 126 Q9 160 7 202.5 Q5 245 17 292 Q43 391 114 450 Q185 509 277 509 Q339 509 378 481.5 Q417 454 440 391 Q474 443 532.5 476 Q591 509 654 509 Z M120 291 Q103 228 126.5 186.5 Q150 145 196 145 Q239 145 279.5 169.5 Q320 194 354 240 Q353 323 329 363.5 Q305 404 257 404 Q213 404 173 371.5 Q133 339 120 291 Z M694 258 Q711 323 688.5 363.5 Q666 404 617 404 Q575 404 535 379.5 Q495 355 461 309 Q463 226 487 185.5 Q511 145 558 145 Q601 145 641 177.5 Q681 210 694 258 Z " />
<glyph glyph-name="integral" unicode="&#x222b;" horiz-adv-x="427" d="M-143 -117 Q-133 -124 -116 -129 Q-99 -134 -83 -134 Q-40 -134 -12 -101.5 Q16 -69 36 6 L175 528 Q207 645 272.5 707.5 Q338 770 432 770 Q449 770 467 767 Q485 764 498 759 L470 653 Q460 660 443 665 Q426 670 410 670 Q367 670 339 637.5 Q311 605 291 530 L151 8 Q120 -109 54 -171.5 Q-12 -234 -106 -234 Q-122 -234 -140.5 -231 Q-159 -228 -172 -223 L-143 -117 Z " />
<glyph glyph-name="partialdiff" unicode="&#x2202;" horiz-adv-x="612" d="M528 292 Q493 150 409 69.5 Q325 -11 209 -11 Q93 -11 47.5 70 Q2 151 36 290 Q66 412 143.5 484 Q221 556 326 556 Q352 556 374 550.5 Q396 545 415 531 Q390 590 339 638 Q288 686 211 725 L308 801 Q450 728 509.5 592.5 Q569 457 528 292 Z M150 290 Q124 196 144 143.5 Q164 91 227 91 Q294 91 339 135.5 Q384 180 409 272 Q434 364 413 409 Q392 454 325 454 Q260 454 216 412.5 Q172 371 150 290 Z " />
<glyph glyph-name="alpha" unicode="&#x3b1;" horiz-adv-x="622" d="M587 545 L460 272 L460 0 L356 0 L362 137 Q312 66 254 27.5 Q196 -11 139 -11 Q57 -11 25 72.5 Q-7 156 24 279 Q56 405 129.5 480.5 Q203 556 296 556 Q358 556 393.5 516 Q429 476 433 406 L480 545 L587 545 Z M116 287 Q96 205 114.5 153 Q133 101 180 101 Q228 101 281 144.5 Q334 188 375 264 Q372 354 345 399 Q318 444 267 444 Q216 444 175 402 Q134 360 116 287 Z " />
<glyph glyph-name="beta" unicode="&#x3b2;" horiz-adv-x="605" d="M104 64 L49 -224 L-72 -224 L132 536 Q169 673 240 737.5 Q311 802 426 802 Q527 802 571.5 742 Q616 682 589 583 Q576 536 538 490 Q500 444 453 419 Q499 392 514.5 337.5 Q530 283 510 210 Q483 113 411 51 Q339 -11 248 -11 Q196 -11 160.5 7.5 Q125 26 104 64 Z M402 690 Q334 690 291.5 653.5 Q249 617 229 540 L130 166 Q154 133 183.5 117 Q213 101 253 101 Q311 101 358 138 Q405 175 421 234 Q436 289 415 327.5 Q394 366 344 373 Q319 368 297 366 Q275 364 247 364 L274 467 Q295 467 317 465 Q339 463 367 458 Q411 466 446 500.5 Q481 535 494 581 Q508 633 484 661.5 Q460 690 402 690 Z " />
<glyph glyph-name="delta" unicode="&#x3b4;" horiz-adv-x="539" d="M447 222 Q420 123 337.5 56 Q255 -11 166 -11 Q74 -11 31.5 63 Q-11 137 17 252 Q34 325 81 387 Q128 449 207 503 Q177 534 168 569 Q159 604 170 647 Q189 715 243.5 758.5 Q298 802 369 802 Q424 802 486 782 Q548 762 584 733 L530 645 Q481 667 434 679 Q387 691 346 691 Q307 691 288 683 Q269 675 264 656 Q257 630 279.5 596.5 Q302 563 357 513 Q431 446 451 378.5 Q471 311 447 222 Z M107 254 Q88 182 111 141.5 Q134 101 193 101 Q251 101 298.5 141.5 Q346 182 362 244 Q377 298 356 343.5 Q335 389 279 426 Q224 412 173.5 362 Q123 312 107 254 Z " />
<glyph glyph-name="epsilon" unicode="&#x3b5;" horiz-adv-x="510" d="M295 446 Q239 446 209 431.5 Q179 417 170 386 Q163 360 184 339 Q205 318 247 312 Q286 317 315.5 319 Q345 321 377 321 L349 218 Q312 217 282.5 219 Q253 221 223 227 Q167 218 137 202 Q107 186 100 160 Q92 129 117 111.5 Q142 94 197 94 Q239 94 274 101.5 Q309 109 346 127 L372 56 Q326 23 271.5 6 Q217 -11 159 -11 Q71 -11 24 33.5 Q-23 78 -5 143 Q7 189 45 223 Q83 257 140 273 Q101 286 83.5 327 Q66 368 79 418 Q95 481 162 518.5 Q229 556 327 556 Q378 556 419.5 539 Q461 522 486 491 L421 417 Q389 433 360.5 439.5 Q332 446 295 446 Z " />
<glyph glyph-name="theta" unicode="&#x3b8;" horiz-adv-x="551" d="M387 797 Q488 797 520.5 685 Q553 573 504 391 Q455 209 362.5 97 Q270 -15 169 -15 Q68 -15 36 97 Q4 209 53 391 Q101 573 193.5 685 Q286 797 387 797 Z M357 685 Q299 685 246.5 621.5 Q194 558 157 440 L426 440 Q452 558 433.5 621.5 Q415 685 357 685 Z M199 97 Q259 97 311 161.5 Q363 226 401 345 L132 345 Q105 226 122.5 161.5 Q140 97 199 97 Z " />
<glyph glyph-name="lambda" unicode="&#x3bb;" horiz-adv-x="512" d="M146 677 Q134 678 125 678.5 Q116 679 108 679 L135 779 Q154 779 163 779 Q172 779 179 778 Q268 770 308 722.5 Q348 675 359 545 L407 0 L289 0 L272 337 Q270 373 270.5 393.5 Q271 414 274 418 L271 418 Q271 414 260.5 393.5 Q250 373 229 337 L31 0 L-95 0 L247 545 Q252 604 227 636.5 Q202 669 146 677 Z " />
<glyph glyph-name="mu.math" unicode="&#xb5;" horiz-adv-x="620" d="M146 -11 Q133 -11 121 -10 Q109 -9 98 -6 L40 -224 L-72 -224 L54 246 L54 246 L134 545 L246 545 L154 200 Q137 139 148.5 114 Q160 89 203 89 Q241 89 286.5 105 Q332 121 354 143 L462 545 L574 545 L428 0 L316 0 L327 40 L325 43 Q279 16 234.5 2.5 Q190 -11 146 -11 Z " />
<glyph glyph-name="nu" unicode="&#x3bd;" horiz-adv-x="522" d="M103 0 Q105 152 93 282 Q81 412 54 545 L177 545 Q195 457 202 343.5 Q209 230 203 127 L205 127 Q271 213 333 325.5 Q395 438 433 545 L556 545 Q496 409 395.5 249 Q295 89 215 0 L103 0 Z " />
<glyph glyph-name="pi" unicode="&#x3c0;" horiz-adv-x="683" d="M38 449 L64 545 L664 545 L638 449 L538 449 L478 223 Q457 146 463 118 Q469 90 505 90 Q516 90 527.5 92 Q539 94 569 104 L543 8 Q508 -4 490 -7.5 Q472 -11 452 -11 Q378 -11 352 32.5 Q326 76 349 161 L426 449 L250 449 L130 0 L18 0 L138 449 L38 449 Z " />
<glyph glyph-name="rho" unicode="&#x3c1;" horiz-adv-x="601" d="M100 54 L49 -224 L-72 -224 L134 545 L231 545 L201 432 Q242 488 297 522 Q352 556 405 556 Q491 556 523.5 477.5 Q556 399 524 280 Q490 154 407 71.5 Q324 -11 229 -11 Q187 -11 153.5 6 Q120 23 100 54 Z M364 444 Q312 444 256 400.5 Q200 357 159 281 L126 158 Q146 130 178 115.5 Q210 101 253 101 Q308 101 360 150 Q412 199 432 272 Q453 351 434.5 397.5 Q416 444 364 444 Z " />
<glyph glyph-name="increment" unicode="&#x2206;" horiz-adv-x="762" d="M-67 0 L-64 12 L477 763 L489 763 L628 12 L625 0 L-67 0 Z M492 103 L422 537 L124 103 L492 103 Z " />
<glyph glyph-name="product" unicode="&#x220f;" horiz-adv-x="762" d="M363 -78 L561 662 L312 662 L114 -78 L2 -78 L200 662 L83 662 L111 763 L783 763 L755 662 L673 662 L475 -78 L363 -78 Z " />
<glyph glyph-name="summation" unicode="&#x2211;" horiz-adv-x="614" d="M629 662 L290 662 L466 347 L119 23 L458 23 L431 -78 L-63 -78 L-43 -2 L331 347 L142 687 L162 763 L656 763 L629 662 Z " />
<glyph glyph-name="Omega" unicode="&#x3a9;" horiz-adv-x="788" d="M133 109 Q84 173 68.5 264 Q53 355 78 452 Q114 595 227.5 684 Q341 773 491 773 Q639 773 709.5 671 Q780 569 738 419 Q713 329 651 244.5 Q589 160 509 109 L640 109 L611 0 L359 0 L388 109 Q485 189 540.5 265 Q596 341 619 424 Q649 534 608 598 Q567 662 464 664 Q365 662 293.5 598.5 Q222 535 193 424 Q170 341 185 265 Q200 189 254 109 L225 0 L-27 0 L2 109 L133 109 Z " />
<glyph glyph-name="lozenge" unicode="&#x25ca;" horiz-adv-x="585" d="M555 382 L555 380 L190 -11 L186 -11 L30 380 L30 382 L396 774 L400 774 L555 382 Z M236 168 L427 381 L350 594 L158 381 L236 168 Z " />
<glyph glyph-name="whitesquarebracketleft" unicode="&#x301a;" horiz-adv-x="512" d="M-103 -224 L169 791 L591 791 L566 697 L467 697 L245 -130 L344 -130 L319 -224 L108 -224 L355 697 L256 697 L34 -130 L133 -130 L108 -224 L-103 -224 Z " />
<glyph glyph-name="whitesquarebracketright" unicode="&#x301b;" horiz-adv-x="512" d="M541 791 L269 -224 L-153 -224 L-128 -130 L-29 -130 L193 697 L94 697 L119 791 L330 791 L83 -130 L182 -130 L404 697 L305 697 L330 791 L541 791 Z " />
<glyph glyph-name="parendblleft" unicode="&#x2e28;" horiz-adv-x="556" d="M130 121 Q130 38 139.5 -33.5 Q149 -105 172 -188 L87 -235 Q54 -169 36 -79 Q18 11 18 107 Q18 311 104 492.5 Q190 674 350 803 L420 745 Q283 630 206.5 461.5 Q130 293 130 121 Z M341 121 Q341 38 350.5 -33.5 Q360 -105 383 -188 L298 -235 Q265 -169 247 -79 Q229 11 229 107 Q229 311 315 492.5 Q401 674 561 803 L631 745 Q494 630 417.5 461.5 Q341 293 341 121 Z " />
<glyph glyph-name="parendblright" unicode="&#x2e29;" horiz-adv-x="556" d="M143 447 Q143 530 133.5 601.5 Q124 673 101 756 L186 803 Q219 737 237 647 Q255 557 255 461 Q255 257 169 75.5 Q83 -106 -77 -235 L-147 -177 Q-10 -62 66.5 106.5 Q143 275 143 447 Z M354 447 Q354 530 344.5 601.5 Q335 673 312 756 L397 803 Q430 737 448 647 Q466 557 466 461 Q466 257 380 75.5 Q294 -106 134 -235 L64 -177 Q201 -62 277.5 106.5 Q354 275 354 447 Z " />
<glyph glyph-name="emptyset" unicode="&#x2205;" horiz-adv-x="865" d="M341 -11 Q286 -11 239.5 1.5 Q193 14 157 37 L100 -20 L28 40 L89 102 Q50 157 41 235.5 Q32 314 57 408 Q101 571 229 672.5 Q357 774 526 774 Q579 774 625 761.5 Q671 749 707 726 L764 783 L836 723 L775 661 Q776 659 777.5 656.5 Q779 654 781 652 Q817 596 825 522 Q833 448 811 366 Q766 197 638.5 93 Q511 -11 341 -11 Z M178 408 Q162 345 164 291.5 Q166 238 185 199 L617 635 Q593 649 563 657 Q533 665 497 665 Q384 665 295.5 592.5 Q207 520 178 408 Z M690 366 Q706 426 703 477 Q700 528 681 566 L248 129 Q272 114 302.5 106 Q333 98 370 98 Q483 98 570.5 172.5 Q658 247 690 366 Z " />
<glyph glyph-name="Ndblstruck" unicode="&#x2115;" horiz-adv-x="807" d="M190 293 L111 0 L-10 0 L166 658 L166 658 L194 763 L319 763 L564 455 Q573 444 582.5 429 Q592 414 602 394 L605 394 Q610 418 614 437 Q618 456 622 470 L700 763 L821 763 L645 105 L645 105 L617 0 L492 0 L248 308 Q239 320 229.5 335 Q220 350 210 369 L207 369 Q202 346 198 327 Q194 308 190 293 Z M531 121 L536 121 Q539 144 546.5 176.5 Q554 209 568 262 L296 615 Q289 624 285.5 630 Q282 636 280 645 L276 645 Q274 625 267 593.5 Q260 562 243 501 L515 148 Q525 134 527.5 130 Q530 126 531 121 Z " />
<glyph glyph-name="Zdblstruck" unicode="&#x2124;" horiz-adv-x="735" d="M155 654 L184 763 L779 763 L752 659 L346 112 L348 109 L614 109 L585 0 L-30 0 L-2 105 L403 651 L401 654 L155 654 Z M131 109 L216 109 L620 651 L618 654 L533 654 L129 112 L131 109 Z " />
<glyph glyph-name="Rdblstruck" unicode="&#x211d;" horiz-adv-x="898" d="M296 654 L121 0 L0 0 L204 763 L616 763 Q753 763 820.5 693.5 Q888 624 858 511 Q839 441 801 396 Q763 351 700 325 L778 0 L657 0 L592 302 Q576 299 557.5 297.5 Q539 296 510 296 L560 0 L450 0 L408 293 L380 292 L302 0 L191 0 L366 654 L296 654 Z M750 524 Q767 590 738 627.5 Q709 665 643 665 Q669 645 678.5 608 Q688 571 678 530 Q665 479 634 441 Q603 403 558 382 Q635 384 684 420 Q733 456 750 524 Z M570 527 Q588 594 563 630 Q538 666 480 664 L405 383 Q468 385 509.5 421.5 Q551 458 570 527 Z " />
<glyph glyph-name="union" unicode="&#x222a;" horiz-adv-x="802" d="M703 339 Q654 156 559.5 72.5 Q465 -11 310 -11 Q157 -11 97 86 Q37 183 84 354 L168 663 L278 663 L198 364 Q162 229 195.5 164 Q229 99 333 99 Q434 99 498 160.5 Q562 222 599 362 L680 663 L790 663 L703 339 Z " />
<glyph glyph-name="unionarray" unicode="&#x22c3;" horiz-adv-x="802" d="M703 339 Q654 156 559.5 72.5 Q465 -11 310 -11 Q157 -11 97 86 Q37 183 84 354 L168 663 L278 663 L198 364 Q162 229 195.5 164 Q229 99 333 99 Q434 99 498 160.5 Q562 222 599 362 L680 663 L790 663 L703 339 Z " />
<glyph glyph-name="propersubset" unicode="&#x2282;" horiz-adv-x="794" d="M374 70 Q195 70 112 159.5 Q29 249 68 409 Q103 554 213 623 Q323 692 525 692 L809 692 L780 582 L506 582 Q359 582 281.5 539.5 Q204 497 182 408 Q154 293 207 236.5 Q260 180 398 180 L681 180 L652 70 L374 70 Z " />
<glyph glyph-name="element" unicode="&#x2208;" horiz-adv-x="794" d="M681 184 L652 74 L374 74 Q195 74 112 163.5 Q29 253 68 413 Q103 558 213 627 Q323 696 525 696 L809 696 L780 586 L506 586 Q367 586 290.5 548.5 Q214 511 188 432 L692 432 L664 331 L172 331 Q175 257 231 220.5 Q287 184 398 184 L681 184 Z " />
<glyph glyph-name="notelement" unicode="&#x2209;" horiz-adv-x="794" d="M373 74 Q338 74 305.5 77.5 Q273 81 245 88 L178 0 L46 0 L146 132 Q86 174 65 245.5 Q44 317 67 413 Q102 558 212 627 Q322 696 524 696 L577 696 L628 763 L760 763 L709 696 L808 696 L779 586 L625 586 L508 432 L691 432 L663 331 L430 331 L322 189 Q339 186 357.5 185 Q376 184 397 184 L680 184 L651 74 L373 74 Z M187 432 L376 432 L493 586 Q360 584 286.5 546.5 Q213 509 187 432 Z M171 331 Q172 297 184.5 271.5 Q197 246 220 228 L298 331 L171 331 Z " />
<glyph glyph-name="propersuperset" unicode="&#x2283;" horiz-adv-x="794" d="M432 692 Q611 692 694 602.5 Q777 513 738 353 Q703 208 593 139 Q483 70 281 70 L-3 70 L26 180 L300 180 Q447 180 524.5 222.5 Q602 265 624 354 Q652 469 599 525.5 Q546 582 408 582 L125 582 L154 692 L432 692 Z " />
<glyph glyph-name="suchthat" unicode="&#x220b;" horiz-adv-x="794" d="M738 349 Q703 204 593 135 Q483 66 281 66 L-3 66 L26 176 L300 176 Q439 176 515.5 213.5 Q592 251 618 330 L115 330 L143 431 L634 431 Q631 505 575 541.5 Q519 578 408 578 L125 578 L154 688 L432 688 Q611 688 694 598.5 Q777 509 738 349 Z " />
<glyph glyph-name="notcontains" unicode="&#x220c;" horiz-adv-x="794" d="M281 66 L240 66 L190 0 L58 0 L108 66 L-3 66 L26 176 L192 176 L310 330 L115 330 L143 431 L387 431 L494 571 Q475 575 453.5 576.5 Q432 578 408 578 L125 578 L154 688 L432 688 Q471 688 505.5 683.5 Q540 679 570 671 L640 763 L772 763 L666 625 Q722 582 741.5 512 Q761 442 738 349 Q703 204 593 135 Q483 66 281 66 Z M519 431 L634 431 Q633 462 622.5 486.5 Q612 511 593 528 L519 431 Z M442 330 L324 176 Q451 179 522 217 Q593 255 618 330 L442 330 Z " />
<glyph glyph-name="intersection" unicode="&#x2229;" horiz-adv-x="802" d="M87 324 Q136 507 230.5 590.5 Q325 674 480 674 Q633 674 693 577 Q753 480 706 309 L622 0 L512 0 L592 299 Q628 434 594.5 499 Q561 564 457 564 Q356 564 292 502.5 Q228 441 191 301 L110 0 L0 0 L87 324 Z " />
<glyph glyph-name="intersectionarray" unicode="&#x22c2;" horiz-adv-x="802" d="M87 324 Q136 507 230.5 590.5 Q325 674 480 674 Q633 674 693 577 Q753 480 706 309 L622 0 L512 0 L592 299 Q628 434 594.5 499 Q561 564 457 564 Q356 564 292 502.5 Q228 441 191 301 L110 0 L0 0 L87 324 Z " />
<glyph glyph-name="bulletoperator" unicode="&#x2219;" horiz-adv-x="256" d="M170 273 Q162 241 132.5 218 Q103 195 71 195 Q39 195 22.5 218 Q6 241 14 273 Q23 305 52 328 Q81 351 113 351 Q145 351 162 328 Q179 305 170 273 Z " />
<glyph glyph-name="arrowleft" unicode="&#x2190;" horiz-adv-x="1020" d="M970 222 L347 222 L347 92 L0 272 L0 273 L347 453 L347 323 L970 323 L970 222 Z " />
<glyph glyph-name="arrowup" unicode="&#x2191;" horiz-adv-x="361" d="M130 -213 L130 410 L0 410 L180 757 L181 757 L361 410 L231 410 L231 -213 L130 -213 Z " />
<glyph glyph-name="arrowright" unicode="&#x2192;" horiz-adv-x="1020" d="M50 323 L673 323 L673 453 L1020 273 L1020 272 L673 92 L673 222 L50 222 L50 323 Z " />
<glyph glyph-name="arrowdown" unicode="&#x2193;" horiz-adv-x="361" d="M231 757 L231 134 L361 134 L181 -213 L180 -213 L0 134 L130 134 L130 757 L231 757 Z " />
<glyph glyph-name="arrowleftfrombar" unicode="&#x21a4;" horiz-adv-x="1020" d="M327 456 L184 323 L869 323 L869 453 L970 453 L970 92 L869 92 L869 222 L185 222 L327 89 L255 17 L0 272 L0 273 L255 528 L327 456 Z " />
<glyph glyph-name="arrowrightfrombar" unicode="&#x21a6;" horiz-adv-x="1020" d="M693 89 L836 222 L151 222 L151 92 L50 92 L50 453 L151 453 L151 323 L835 323 L693 456 L765 528 L1020 273 L1020 272 L765 17 L693 89 Z " />
<glyph glyph-name="arrowupfrombar" unicode="&#x21a5;" horiz-adv-x="511" d="M439 430 L306 573 L306 -112 L436 -112 L436 -213 L75 -213 L75 -112 L205 -112 L205 572 L72 430 L0 502 L255 757 L256 757 L511 502 L439 430 Z " />
<glyph glyph-name="arrowdownfrombar" unicode="&#x21a7;" horiz-adv-x="511" d="M72 114 L205 -29 L205 656 L75 656 L75 757 L436 757 L436 656 L306 656 L306 -28 L439 114 L511 42 L256 -213 L255 -213 L0 42 L72 114 Z " />
<glyph glyph-name="arrowdblleft" unicode="&#x21d0;" horiz-adv-x="1120" d="M428 557 L295 424 L1070 424 L1070 323 L193 323 L143 273 L143 272 L193 222 L1070 222 L1070 121 L295 121 L428 -12 L356 -84 L0 272 L0 273 L356 629 L428 557 Z " />
<glyph glyph-name="arrowdblright" unicode="&#x21d2;" horiz-adv-x="1120" d="M692 -12 L825 121 L50 121 L50 222 L927 222 L977 272 L977 273 L927 323 L50 323 L50 424 L825 424 L692 557 L764 629 L1120 273 L1120 272 L764 -84 L692 -12 Z " />
<glyph glyph-name="arrowdblboth" unicode="&#x21d4;" horiz-adv-x="1439" d="M428 557 L295 424 L1144 424 L1011 557 L1083 629 L1439 273 L1439 272 L1083 -84 L1011 -12 L1144 121 L295 121 L428 -12 L356 -84 L0 272 L0 273 L356 629 L428 557 Z M1246 222 L1296 272 L1296 273 L1246 323 L193 323 L143 273 L143 272 L193 222 L1246 222 Z " />
<glyph glyph-name="dblarrowleftrightstroke" unicode="&#x21ce;" horiz-adv-x="1439" d="M470 -144 L594 121 L295 121 L428 -12 L356 -84 L0 272 L0 273 L356 629 L428 557 L295 424 L735 424 L879 732 L971 689 L847 424 L1144 424 L1011 557 L1083 629 L1439 273 L1439 272 L1083 -84 L1011 -12 L1144 121 L706 121 L562 -187 L470 -144 Z M193 323 L143 273 L143 272 L193 222 L641 222 L688 323 L193 323 Z M1246 222 L1296 272 L1296 273 L1246 323 L800 323 L753 222 L1246 222 Z " />
<glyph glyph-name="dblarrowleftstroke" unicode="&#x21cd;" horiz-adv-x="1120" d="M519 -144 L643 121 L295 121 L428 -12 L356 -84 L0 272 L0 273 L356 629 L428 557 L295 424 L784 424 L928 732 L1020 689 L896 424 L1070 424 L1070 323 L849 323 L802 222 L1070 222 L1070 121 L755 121 L611 -187 L519 -144 Z M193 323 L143 273 L143 272 L193 222 L690 222 L737 323 L193 323 Z " />
<glyph glyph-name="dblarrowrightstroke" unicode="&#x21cf;" horiz-adv-x="1120" d="M100 -144 L224 121 L50 121 L50 222 L271 222 L318 323 L50 323 L50 424 L365 424 L509 732 L601 689 L477 424 L825 424 L692 557 L764 629 L1120 273 L1120 272 L764 -84 L692 -12 L825 121 L336 121 L192 -187 L100 -144 Z M927 222 L977 272 L977 273 L927 323 L430 323 L383 222 L927 222 Z " />
<glyph glyph-name="currency" unicode="&#xa4;" horiz-adv-x="664" d="M531 74 L436 0 L361 103 Q338 92 312.5 86.5 Q287 81 261 81 Q234 81 211.5 86.5 Q189 92 171 103 L42 0 L-13 74 L117 177 Q112 197 113 221 Q114 245 121 272 Q128 299 140 322.5 Q152 346 168 367 L93 470 L187 545 L263 442 Q286 452 311.5 457.5 Q337 463 363 463 Q389 463 411.5 457.5 Q434 452 452 441 L583 545 L637 470 L506 367 Q511 346 510.5 322 Q510 298 503 272 Q496 246 484 222 Q472 198 456 177 L531 74 Z M401 272 Q412 313 394 338 Q376 363 336 363 Q296 363 265 338 Q234 313 223 272 Q212 232 230 207 Q248 182 288 182 Q328 182 359 207 Q390 232 401 272 Z " />
<glyph glyph-name="underscore" unicode="&#x5f;" horiz-adv-x="504" d="M378 -123 L351 -224 L-153 -224 L-126 -123 L378 -123 Z " />
<glyph glyph-name="hyphen" unicode="&#x2d;" horiz-adv-x="436" d="M380 323 L352 222 L16 222 L44 323 L380 323 Z " />
<glyph glyph-name="hyphensoft" unicode="&#xad;" horiz-adv-x="436" d="M380 323 L352 222 L16 222 L44 323 L380 323 Z " />
<glyph glyph-name="endash" unicode="&#x2013;" horiz-adv-x="604" d="M548 323 L520 222 L16 222 L44 323 L548 323 Z " />
<glyph glyph-name="emdash" unicode="&#x2014;" horiz-adv-x="772" d="M716 323 L688 222 L16 222 L44 323 L716 323 Z " />
<glyph glyph-name="parenleft" unicode="&#x28;" horiz-adv-x="345" d="M130 121 Q130 38 139.5 -33.5 Q149 -105 172 -188 L87 -235 Q54 -169 36 -79 Q18 11 18 107 Q18 311 104 492.5 Q190 674 350 803 L420 745 Q283 630 206.5 461.5 Q130 293 130 121 Z " />
<glyph glyph-name="bracketleft" unicode="&#x5b;" horiz-adv-x="301" d="M355 697 L256 697 L34 -130 L133 -130 L108 -224 L-103 -224 L169 791 L380 791 L355 697 Z " />
<glyph glyph-name="braceleft" unicode="&#x7b;" horiz-adv-x="333" d="M4 50 Q30 91 40 110.5 Q50 130 54 146 Q64 182 56 210.5 Q48 239 23 247 L42 319 Q71 327 94.5 355.5 Q118 384 128 420 Q132 436 132.5 455.5 Q133 475 129 515 Q124 560 125 583 Q126 606 131 625 Q156 716 226.5 759 Q297 802 404 790 L386 696 Q319 703 287 685.5 Q255 668 242 621 Q238 605 237.5 585 Q237 565 240 523 Q245 478 244 455.5 Q243 433 238 415 Q227 372 202 338 Q177 304 142 283 Q167 262 173 227.5 Q179 193 167 151 Q162 133 151 110.5 Q140 88 112 44 Q86 2 75.5 -18.5 Q65 -39 61 -55 Q49 -102 69.5 -119 Q90 -136 157 -130 L132 -224 Q19 -236 -28.5 -193 Q-76 -150 -52 -59 Q-47 -40 -35.5 -17.5 Q-24 5 4 50 Z " />
<glyph glyph-name="parenright" unicode="&#x29;" horiz-adv-x="345" d="M143 447 Q143 530 133.5 601.5 Q124 673 101 756 L186 803 Q219 737 237 647 Q255 557 255 461 Q255 257 169 75.5 Q83 -106 -77 -235 L-147 -177 Q-10 -62 66.5 106.5 Q143 275 143 447 Z " />
<glyph glyph-name="bracketright" unicode="&#x5d;" horiz-adv-x="301" d="M193 697 L94 697 L119 791 L330 791 L58 -224 L-153 -224 L-128 -130 L-29 -130 L193 697 Z " />
<glyph glyph-name="braceright" unicode="&#x7d;" horiz-adv-x="333" d="M255 517 Q229 476 219 456.5 Q209 437 205 421 Q195 385 203 356.5 Q211 328 236 320 L216 248 Q187 240 164 211.5 Q141 183 131 147 Q127 131 126.5 111.5 Q126 92 130 52 Q134 7 133 -16 Q132 -39 127 -58 Q103 -149 32.5 -192 Q-38 -235 -145 -223 L-128 -129 Q-60 -136 -28 -118.5 Q4 -101 17 -54 Q21 -38 21.5 -18 Q22 2 19 44 Q14 89 15 111.5 Q16 134 21 152 Q32 195 57 229 Q82 263 117 284 Q93 305 86.5 339 Q80 373 91 416 Q96 434 107 456 Q118 478 146 522 Q173 565 183.5 585.5 Q194 606 198 622 Q210 669 189.5 686 Q169 703 102 697 L127 791 Q240 803 287.5 760 Q335 717 311 626 Q306 607 294.5 584.5 Q283 562 255 517 Z " />
<glyph glyph-name="guilsinglleft" unicode="&#x2039;" horiz-adv-x="389" d="M272 75 L202 0 L9 228 L29 305 L348 545 L385 459 L119 258 L272 75 Z " />
<glyph glyph-name="guillemotleft" unicode="&#xab;" horiz-adv-x="698" d="M272 75 L202 0 L9 228 L29 305 L348 545 L385 459 L119 258 L272 75 Z M581 75 L511 0 L318 228 L338 305 L657 545 L694 459 L428 258 L581 75 Z " />
<glyph glyph-name="guilsinglright" unicode="&#x203a;" horiz-adv-x="389" d="M77 467 L147 545 L339 318 L319 241 L1 0 L-37 90 L227 288 L77 467 Z " />
<glyph glyph-name="guillemotright" unicode="&#xbb;" horiz-adv-x="698" d="M77 467 L147 545 L339 318 L319 241 L1 0 L-37 90 L227 288 L77 467 Z M387 467 L457 545 L649 318 L629 241 L311 0 L273 90 L537 288 L387 467 Z " />
<glyph glyph-name="quoteleft" unicode="&#x2018;" horiz-adv-x="226" d="M226 474 L57 747 L174 769 L300 497 L226 474 Z " />
<glyph glyph-name="quotedblleft" unicode="&#x201c;" horiz-adv-x="434" d="M226 474 L57 747 L174 769 L300 497 L226 474 Z M434 474 L265 747 L382 769 L508 497 L434 474 Z " />
<glyph glyph-name="quoteright" unicode="&#x2019;" horiz-adv-x="226" d="M293 747 L124 474 L50 497 L176 769 L293 747 Z " />
<glyph glyph-name="quotesingle" unicode="&#x27;" horiz-adv-x="226" d="M293 747 L124 474 L50 497 L176 769 L293 747 Z " />
<glyph glyph-name="quotedbl" unicode="&#x22;" horiz-adv-x="434" d="M305 747 L136 474 L62 497 L188 769 L305 747 Z M513 747 L344 474 L270 497 L396 769 L513 747 Z " />
<glyph glyph-name="quotedblright" unicode="&#x201d;" horiz-adv-x="434" d="M291 747 L122 474 L48 497 L174 769 L291 747 Z M499 747 L330 474 L256 497 L382 769 L499 747 Z " />
<glyph glyph-name="quotesinglbase" unicode="&#x201a;" horiz-adv-x="252" d="M157 86 L-52 -165 L-117 -128 L51 130 L157 86 Z " />
<glyph glyph-name="quotedblbase" unicode="&#x201e;" horiz-adv-x="467" d="M157 86 L-52 -165 L-117 -128 L51 130 L157 86 Z M372 86 L163 -165 L98 -128 L266 130 L372 86 Z " />
<glyph glyph-name="period" unicode="&#x2e;" horiz-adv-x="256" d="M130 68 Q122 36 92.5 13 Q63 -10 31 -10 Q-1 -10 -17.5 13 Q-34 36 -26 68 Q-17 100 12 123 Q41 146 73 146 Q105 146 122 123 Q139 100 130 68 Z " />
<glyph glyph-name="ellipsis" unicode="&#x2026;" horiz-adv-x="868" d="M742 68 Q734 36 704.5 13 Q675 -10 643 -10 Q611 -10 594.5 13 Q578 36 586 68 Q595 100 624 123 Q653 146 685 146 Q717 146 734 123 Q751 100 742 68 Z M436 68 Q428 36 398.5 13 Q369 -10 337 -10 Q305 -10 288.5 13 Q272 36 280 68 Q289 100 318 123 Q347 146 379 146 Q411 146 428 123 Q445 100 436 68 Z M130 68 Q122 36 92.5 13 Q63 -10 31 -10 Q-1 -10 -17.5 13 Q-34 36 -26 68 Q-17 100 12 123 Q41 146 73 146 Q105 146 122 123 Q139 100 130 68 Z " />
<glyph glyph-name="middot" unicode="&#xb7;" horiz-adv-x="256" d="M170 273 Q162 241 132.5 218 Q103 195 71 195 Q39 195 22.5 218 Q6 241 14 273 Q23 305 52 328 Q81 351 113 351 Q145 351 162 328 Q179 305 170 273 Z " />
<glyph glyph-name="bullet" unicode="&#x2022;" horiz-adv-x="338" d="M182 392 Q232 392 257 357 Q282 322 269 273 Q255 223 211 188.5 Q167 154 118 154 Q68 154 43 189 Q18 224 31 273 Q45 323 89 357.5 Q133 392 182 392 Z " />
<glyph glyph-name="comma" unicode="&#x2c;" horiz-adv-x="252" d="M157 86 L-52 -165 L-117 -128 L51 130 L157 86 Z " />
<glyph glyph-name="colon" unicode="&#x3a;" horiz-adv-x="256" d="M240 478 Q232 446 202.5 423 Q173 400 141 400 Q109 400 92.5 423 Q76 446 84 478 Q92 510 121.5 533 Q151 556 183 556 Q215 556 231.5 533 Q248 510 240 478 Z M130 67 Q122 35 92.5 12 Q63 -11 31 -11 Q-1 -11 -17.5 12 Q-34 35 -26 67 Q-18 99 11.5 122 Q41 145 73 145 Q105 145 121.5 122 Q138 99 130 67 Z " />
<glyph glyph-name="semicolon" unicode="&#x3b;" horiz-adv-x="278" d="M242 478 Q234 446 204.5 423 Q175 400 143 400 Q111 400 94.5 423 Q78 446 86 478 Q95 510 124 533 Q153 556 185 556 Q217 556 234 533 Q251 510 242 478 Z M147 86 L-62 -165 L-127 -128 L41 130 L147 86 Z " />
<glyph glyph-name="question" unicode="&#x3f;" horiz-adv-x="486" d="M499 583 Q488 547 463.5 513 Q439 479 373 421 Q297 354 267 311 Q237 268 224 219 L115 219 Q130 281 166 335.5 Q202 390 288 467 Q342 515 359.5 538 Q377 561 382 583 Q392 627 371 650.5 Q350 674 303 674 Q259 674 209 657 Q159 640 121 612 L151 723 Q192 748 242 761.5 Q292 775 342 775 Q430 775 476 719.5 Q522 664 499 583 Z M216 68 Q208 36 178.5 13 Q149 -10 117 -10 Q85 -10 68.5 13 Q52 36 60 68 Q69 100 98 123 Q127 146 159 146 Q191 146 208 123 Q225 100 216 68 Z " />
<glyph glyph-name="questiondown" unicode="&#xbf;" horiz-adv-x="486" d="M269 473 Q277 505 306.5 528 Q336 551 368 551 Q400 551 416.5 528 Q433 505 425 473 Q416 441 387 418 Q358 395 326 395 Q294 395 277 418 Q260 441 269 473 Z M-14 -42 Q-3 -6 21.5 28 Q46 62 112 120 Q188 187 218 230 Q248 273 261 322 L370 322 Q355 260 319 205.5 Q283 151 197 74 Q143 26 125.5 3 Q108 -20 103 -42 Q93 -86 114 -109.5 Q135 -133 182 -133 Q226 -133 276 -116 Q326 -99 364 -71 L334 -182 Q293 -207 243 -220.5 Q193 -234 143 -234 Q55 -234 9 -178.5 Q-37 -123 -14 -42 Z " />
<glyph glyph-name="exclam" unicode="&#x21;" horiz-adv-x="256" d="M99 442 Q127 560 143.5 628 Q160 696 178 763 L298 763 Q281 700 262.5 635 Q244 570 210 457 Q181 360 167 311.5 Q153 263 142 219 L45 219 Q56 260 67 305.5 Q78 351 99 442 Z M130 68 Q122 36 92.5 13 Q63 -10 31 -10 Q-1 -10 -17.5 13 Q-34 36 -26 68 Q-17 100 12 123 Q41 146 73 146 Q105 146 122 123 Q139 100 130 68 Z " />
<glyph glyph-name="exclamdown" unicode="&#xa1;" horiz-adv-x="256" d="M125 471 Q133 503 162.5 526 Q192 549 224 549 Q256 549 272.5 526 Q289 503 281 471 Q272 439 243 416 Q214 393 182 393 Q150 393 133 416 Q116 439 125 471 Z M156 97 Q128 -21 111.5 -89 Q95 -157 77 -224 L-43 -224 Q-26 -161 -7.5 -96 Q11 -31 45 82 Q74 179 88 227.5 Q102 276 113 320 L210 320 Q199 279 188 233.5 Q177 188 156 97 Z " />
<glyph glyph-name="slash" unicode="&#x2f;" horiz-adv-x="461" d="M458 870 L581 870 L28 -78 L-94 -78 L458 870 Z " />
<glyph glyph-name="backslash" unicode="&#x5c;" horiz-adv-x="461" d="M105 870 L213 870 L357 -78 L250 -78 L105 870 Z " />
<glyph glyph-name="bar" unicode="&#x7c;" horiz-adv-x="292" d="M-63 -224 L209 791 L321 791 L49 -224 L-63 -224 Z " />
<glyph glyph-name="brokenbar" unicode="&#xa6;" horiz-adv-x="292" d="M102 390 L209 791 L321 791 L214 390 L102 390 Z M-63 -224 L45 181 L157 181 L49 -224 L-63 -224 Z " />
<glyph glyph-name="copyright" unicode="&#xa9;" horiz-adv-x="858" d="M429 773 Q594 773 701 662 Q808 551 808 381 Q808 211 701 100.5 Q594 -10 429 -10 Q264 -10 157 100.5 Q50 211 50 381 Q50 551 157 662 Q264 773 429 773 Z M429 676 Q306 676 226 592.5 Q146 509 146 381 Q146 253 226 169.5 Q306 86 429 86 Q552 86 632 169.5 Q712 253 712 381 Q712 509 632 592.5 Q552 676 429 676 Z M544 193 Q526 180 495.5 172.5 Q465 165 427 165 Q337 165 285 224 Q233 283 233 381 Q233 479 285 538.5 Q337 598 427 598 Q465 598 494.5 591.5 Q524 585 542 572 L542 469 Q528 483 497 492 Q466 501 433 501 Q385 501 362 471.5 Q339 442 339 381 Q339 324 363 293 Q387 262 431 262 Q463 262 495 271 Q527 280 544 293 L544 193 Z " />
<glyph glyph-name="soundcopyright" unicode="&#x2117;" horiz-adv-x="858" d="M429 773 Q594 773 701 662 Q808 551 808 381 Q808 211 701 100.5 Q594 -10 429 -10 Q264 -10 157 100.5 Q50 211 50 381 Q50 551 157 662 Q264 773 429 773 Z M429 676 Q306 676 226 592.5 Q146 509 146 381 Q146 253 226 169.5 Q306 86 429 86 Q552 86 632 169.5 Q712 253 712 381 Q712 509 632 592.5 Q552 676 429 676 Z M400 293 L400 158 L302 158 L302 591 L432 591 Q520 591 565.5 554 Q611 517 611 444 Q611 372 562 332.5 Q513 293 425 293 L400 293 Z M432 505 L400 505 L400 379 L425 379 Q469 379 491 395 Q513 411 513 443 Q513 474 492.5 489.5 Q472 505 432 505 Z " />
<glyph glyph-name="registered" unicode="&#xae;" horiz-adv-x="741" d="M398 826 Q538 826 628.5 733 Q719 640 719 496 Q719 353 628.5 260 Q538 167 398 167 Q259 167 168.5 260 Q78 353 78 496 Q78 640 168.5 733 Q259 826 398 826 Z M398 733 Q300 733 235.5 666 Q171 599 171 496 Q171 394 235.5 327 Q300 260 398 260 Q497 260 561.5 327 Q626 394 626 496 Q626 599 561.5 666 Q497 733 398 733 Z M357 448 L357 348 L281 348 L281 652 L385 652 Q451 652 484.5 627 Q518 602 518 553 Q518 526 504.5 505 Q491 484 467 471 L541 348 L447 348 L396 449 Q393 448 388 448 Q383 448 373 448 L357 448 Z M385 584 L357 584 L357 516 L381 516 Q409 516 424.5 525 Q440 534 440 551 Q440 567 425.5 575.5 Q411 584 385 584 Z " />
<glyph glyph-name="trademark" unicode="&#x2122;" horiz-adv-x="1134" d="M370 677 L261 273 L154 273 L263 677 L122 677 L144 763 L533 763 L511 677 L370 677 Z M651 515 L581 273 L479 273 L638 763 L746 763 L783 465 Q785 449 786 431.5 Q787 414 787 372 L789 372 Q809 416 818.5 432.5 Q828 449 838 465 L1035 763 L1146 763 L1043 273 L937 273 L994 515 Q1001 542 1009 568 Q1017 594 1026 619 L1023 619 Q1010 594 995 568 Q980 542 963 515 L808 273 L710 273 L684 515 Q681 543 679 569 Q677 595 676 619 L674 619 Q670 594 664.5 568 Q659 542 651 515 Z " />
<glyph glyph-name="paragraph" unicode="&#xb6;" horiz-adv-x="698" d="M501 763 L276 -78 L164 -78 L258 273 Q211 273 171 296 Q131 319 106 360 Q84 397 78.5 442.5 Q73 488 85 537 Q113 649 190 706 Q267 763 389 763 L501 763 Z M591 763 L703 763 L478 -78 L366 -78 L591 763 Z " />
<glyph glyph-name="section" unicode="&#xa7;" horiz-adv-x="606" d="M433 -13 Q405 -117 319 -176 Q233 -235 108 -235 Q58 -235 15.5 -225 Q-27 -215 -66 -195 L-34 -75 Q0 -102 44.5 -116.5 Q89 -131 140 -131 Q207 -131 250 -104 Q293 -77 307 -26 Q317 10 297.5 38.5 Q278 67 199 112 Q146 142 122.5 160 Q99 178 83 197 Q61 226 55 260 Q49 294 60 335 Q69 370 91.5 401 Q114 432 151 461 Q138 484 136 511 Q134 538 142 569 Q168 664 247.5 719 Q327 774 437 774 Q485 774 525.5 764.5 Q566 755 596 737 L563 611 Q540 637 498.5 652 Q457 667 411 667 Q351 667 315 644.5 Q279 622 267 577 Q258 544 277 517 Q296 490 373 449 Q427 419 451.5 400.5 Q476 382 492 363 Q515 334 520.5 298.5 Q526 263 515 221 Q506 186 484.5 154.5 Q463 123 427 93 Q438 70 439.5 43.5 Q441 17 433 -13 Z M282 208 Q313 192 334 180 Q355 168 369 158 Q381 170 389 185 Q397 200 402 218 Q411 253 391 281 Q371 309 289 352 Q263 366 244.5 376.5 Q226 387 213 396 Q198 385 187 369 Q176 353 171 333 Q162 301 182 275 Q202 249 282 208 Z " />
<glyph glyph-name="numero" unicode="&#x2116;" horiz-adv-x="1198" d="M1200 597 Q1180 521 1124.5 479 Q1069 437 989 438 Q906 440 869 498 Q832 556 856 647 Q875 720 929.5 760.5 Q984 801 1062 800 Q1148 799 1185.5 743 Q1223 687 1200 597 Z M233 463 L109 0 L-12 0 L192 763 L313 763 L471 295 Q478 275 485 246 Q492 217 499 179 L503 179 Q510 217 516.5 247 Q523 277 529 300 L653 763 L774 763 L570 0 L449 0 L292 468 Q283 494 276 523 Q269 552 264 584 L260 584 Q254 552 247.5 522 Q241 492 233 463 Z M1098 604 Q1111 659 1097.5 687.5 Q1084 716 1046 716 Q1014 716 989.5 694 Q965 672 957 635 Q944 580 957 551.5 Q970 523 1009 522 Q1041 521 1065 543.5 Q1089 566 1098 604 Z M1142 374 L1114 273 L778 273 L806 374 L1142 374 Z " />
<glyph glyph-name="at" unicode="&#x40;" horiz-adv-x="758" d="M335 -131 Q391 -131 447.5 -115 Q504 -99 571 -64 L555 -164 Q501 -194 435 -210.5 Q369 -227 303 -227 Q216 -227 150.5 -187.5 Q85 -148 50 -76 Q21 -14 18.5 64.5 Q16 143 41 231 Q85 388 195 472 Q305 556 469 556 Q602 556 657.5 492 Q713 428 681 309 L599 0 L518 0 L514 50 L511 51 Q476 21 431.5 5 Q387 -11 338 -11 Q267 -11 232.5 43.5 Q198 98 220 176 Q240 247 314 289 Q388 331 499 331 L575 331 Q577 334 579 340.5 Q581 347 581 348 Q594 394 559 425 Q524 456 448 456 Q330 456 253.5 396.5 Q177 337 142 218 Q97 64 150 -33.5 Q203 -131 335 -131 Z M489 248 Q420 248 382 229.5 Q344 211 331 169 Q320 132 338 107 Q356 82 395 82 Q433 82 473 99 Q513 116 533 139 L562 248 L489 248 Z " />
<glyph glyph-name="estimated" unicode="&#x212e;" horiz-adv-x="771" d="M655 203 L661 203 L661 126 Q616 61 545 25.5 Q474 -10 390 -10 Q244 -10 146 85 Q48 180 48 326 Q48 466 139.5 558 Q231 650 374 650 Q517 650 608 555 Q699 460 699 316 Q699 305 698.5 295 Q698 285 696 274 L174 274 L174 141 Q212 95 269 70 Q326 45 391 45 Q473 45 546.5 89.5 Q620 134 655 203 Z M565 519 Q528 557 479.5 576.5 Q431 596 374 596 Q313 596 261.5 573.5 Q210 551 174 509 L174 326 L565 326 L565 519 Z " />
<glyph glyph-name="dagger" unicode="&#x2020;" horiz-adv-x="484" d="M463 482 L308 490 L188 0 L76 0 L220 490 L59 482 L86 583 L241 576 L280 763 L392 763 L332 576 L490 583 L463 482 Z " />
<glyph glyph-name="daggerdbl" unicode="&#x2021;" horiz-adv-x="484" d="M382 180 L228 188 L188 0 L76 0 L137 188 L-22 180 L5 281 L159 274 L181 392 L217 490 L59 482 L86 583 L241 576 L280 763 L392 763 L332 576 L490 583 L463 482 L311 490 L294 395 L252 274 L409 281 L382 180 Z " />
<glyph glyph-name="asterisk" unicode="&#x2a;" horiz-adv-x="519" d="M377 567 L449 444 L357 391 L306 517 L190 392 L119 452 L249 570 L114 608 L167 706 L293 652 L322 791 L424 791 L379 652 L528 705 L533 608 L377 567 Z " />
<glyph glyph-name="asterism" unicode="&#x2042;" horiz-adv-x="1149" d="M658 567 L730 444 L638 391 L587 517 L471 392 L400 452 L530 570 L395 608 L448 706 L574 652 L603 791 L705 791 L660 652 L809 705 L814 608 L658 567 Z M253 67 L325 -56 L233 -109 L182 17 L66 -108 L-5 -48 L125 70 L-10 108 L43 206 L169 152 L198 291 L300 291 L255 152 L404 205 L409 108 L253 67 Z M883 67 L955 -56 L863 -109 L812 17 L696 -108 L625 -48 L755 70 L620 108 L673 206 L799 152 L828 291 L930 291 L885 152 L1034 205 L1039 108 L883 67 Z " />
<glyph glyph-name="degree" unicode="&#xb0;" horiz-adv-x="482" d="M107 589 Q129 675 191 724.5 Q253 774 341 774 Q423 774 465.5 716.5 Q508 659 485 576 Q463 493 398 442.5 Q333 392 250 392 Q168 392 127 448.5 Q86 505 107 589 Z M384 576 Q396 620 377.5 647 Q359 674 316 674 Q278 674 248.5 650.5 Q219 627 209 589 Q198 546 216 519.5 Q234 493 275 493 Q312 493 343 516.5 Q374 540 384 576 Z " />
<glyph glyph-name="largecircle" unicode="&#x25ef;" horiz-adv-x="482" d="M30 279 Q52 365 114 414.5 Q176 464 264 464 Q346 464 388.5 406.5 Q431 349 408 266 Q386 183 321 132.5 Q256 82 173 82 Q91 82 50 138.5 Q9 195 30 279 Z M307 266 Q319 310 300.5 337 Q282 364 239 364 Q201 364 171.5 340.5 Q142 317 132 279 Q121 236 139 209.5 Q157 183 198 183 Q235 183 266 206.5 Q297 230 307 266 Z " />
<glyph glyph-name="zero.slashLP" unicode="&#xe130;" horiz-adv-x="691" d="M609 339 Q564 176 469 82.5 Q374 -11 247 -11 Q106 -11 64 98 Q22 207 80 422 Q125 587 219.5 680.5 Q314 774 442 774 Q583 774 625 663 Q667 552 609 339 Z M190 392 Q170 313 164.5 256.5 Q159 200 168 165 L448 666 Q441 668 433 668.5 Q425 669 417 669 Q339 669 282 599.5 Q225 530 190 392 Z M498 367 Q518 443 524 498.5 Q530 554 522 590 L246 96 Q251 95 257.5 94.5 Q264 94 270 94 Q348 94 406 163 Q464 232 498 367 Z " />
<glyph glyph-name="zero.LP" unicode="&#xe12b;" horiz-adv-x="691" d="M609 339 Q564 176 469 82.5 Q374 -11 247 -11 Q106 -11 64 98 Q22 207 80 422 Q125 587 219.5 680.5 Q314 774 442 774 Q583 774 625 663 Q667 552 609 339 Z M498 367 Q540 527 520 598 Q500 669 417 669 Q339 669 282 599.5 Q225 530 190 392 Q149 233 169 163.5 Q189 94 270 94 Q348 94 406 163 Q464 232 498 367 Z " />
<glyph glyph-name="one.LP" unicode="&#xe0f0;" horiz-adv-x="537" d="M417 103 L389 0 L-34 0 L-6 103 L148 103 L271 564 L108 564 L132 654 Q154 654 173.5 656.5 Q193 659 211 664 Q231 670 248 679 Q265 688 279 700 Q297 715 308.5 730.5 Q320 746 324 763 L439 763 L263 103 L417 103 Z " />
<glyph glyph-name="two.LP" unicode="&#xe11a;" horiz-adv-x="581" d="M436 103 L408 0 L-43 0 L-10 123 Q248 318 329 400.5 Q410 483 427 549 Q443 609 418 640.5 Q393 672 331 672 Q284 672 228.5 652 Q173 632 129 600 L159 717 Q205 745 261 760 Q317 775 371 775 Q474 775 522.5 711 Q571 647 544 549 Q520 460 431 364.5 Q342 269 127 106 L130 103 L436 103 Z " />
<glyph glyph-name="three.LP" unicode="&#xe113;" horiz-adv-x="569" d="M154 -11 Q129 -11 105.5 -9 Q82 -7 61 -3 Q30 3 8.5 11.5 Q-13 20 -25 30 L6 144 Q19 133 38.5 123.5 Q58 114 83 107 Q103 102 124.5 99 Q146 96 169 96 Q244 96 292 124 Q340 152 354 204 Q372 272 332.5 307 Q293 342 200 342 L126 342 L153 443 L240 443 Q320 443 372.5 472.5 Q425 502 437 557 Q449 612 421 641.5 Q393 671 328 671 Q306 671 282.5 667.5 Q259 664 235 657 Q209 650 187.5 641 Q166 632 148 622 L178 736 Q214 754 266.5 764 Q319 774 372 774 Q474 774 525.5 717.5 Q577 661 559 577 Q546 515 503 467.5 Q460 420 399 400 L399 398 Q448 378 467.5 320.5 Q487 263 467 191 Q440 95 358 42 Q276 -11 154 -11 Z " />
<glyph glyph-name="four.LP" unicode="&#xe0ca;" horiz-adv-x="651" d="M275 0 L323 179 L-5 179 L21 275 L458 763 L594 763 L464 275 L552 275 L526 179 L438 179 L390 0 L275 0 Z M148 278 L151 275 L349 275 L420 517 Q425 534 429.5 551 Q434 568 441 596 Q445 612 447 619.5 Q449 627 451 633 L448 633 Q442 624 418.5 595 Q395 566 353 517 L148 278 Z " />
<glyph glyph-name="five.LP" unicode="&#xe0bf;" horiz-adv-x="601" d="M171 -11 Q144 -11 120 -9 Q96 -7 74 -3 Q41 3 18.5 11 Q-4 19 -15 30 L15 143 Q28 131 48 121 Q68 111 95 103 Q115 98 137.5 95 Q160 92 184 92 Q256 92 305 125 Q354 158 369 216 Q384 274 361.5 309 Q339 344 280 357 Q253 363 216.5 364.5 Q180 366 88 360 L197 764 L593 764 L565 661 L284 661 L231 461 Q385 471 451 403.5 Q517 336 483 205 Q457 107 373.5 48 Q290 -11 171 -11 Z " />
<glyph glyph-name="six.LP" unicode="&#xe108;" horiz-adv-x="643" d="M532 209 Q509 110 432 49 Q355 -12 249 -12 Q113 -12 67.5 96.5 Q22 205 74 407 Q120 582 226.5 678 Q333 774 487 774 Q525 774 563.5 766 Q602 758 638 743 L608 629 Q568 651 532 661 Q496 671 463 669 Q362 664 295 603 Q228 542 196 424 Q231 451 274.5 465 Q318 479 368 479 Q468 479 514 403.5 Q560 328 532 209 Z M418 217 Q436 294 410 338.5 Q384 383 319 383 Q275 383 236.5 369 Q198 355 173 331 Q145 212 168.5 149.5 Q192 87 266 87 Q323 87 363.5 122.5 Q404 158 418 217 Z " />
<glyph glyph-name="seven.LP" unicode="&#xe102;" horiz-adv-x="534" d="M565 651 L108 0 L-20 0 L447 657 L447 660 L104 660 L131 763 L595 763 L565 651 Z " />
<glyph glyph-name="eight.LP" unicode="&#xe0af;" horiz-adv-x="674" d="M560 186 Q535 93 450.5 39.5 Q366 -14 243 -11 Q123 -9 64 54.5 Q5 118 32 219 Q47 277 105.5 332 Q164 387 230 406 Q182 435 161.5 485.5 Q141 536 156 596 Q175 674 252.5 725.5 Q330 777 432 774 Q540 771 593 713.5 Q646 656 621 567 Q607 517 562 471 Q517 425 463 405 Q526 368 552 310.5 Q578 253 560 186 Z M503 565 Q517 617 491.5 648 Q466 679 405 678 Q355 677 317.5 652 Q280 627 270 587 Q258 540 287.5 502.5 Q317 465 380 446 Q428 466 461 497.5 Q494 529 503 565 Z M445 195 Q460 254 425 295.5 Q390 337 304 361 Q249 343 204.5 302.5 Q160 262 148 217 Q132 157 162.5 122.5 Q193 88 263 85 Q332 82 381.5 112 Q431 142 445 195 Z " />
<glyph glyph-name="nine.LP" unicode="&#xe0e4;" horiz-adv-x="643" d="M111 553 Q134 652 211 713 Q288 774 394 774 Q530 774 575.5 665 Q621 556 569 355 Q523 180 416.5 84 Q310 -12 156 -12 Q118 -12 79.5 -4 Q41 4 5 19 L35 133 Q75 111 111 101 Q147 91 180 93 Q281 98 348 159 Q415 220 447 338 Q412 311 368.5 297 Q325 283 275 283 Q175 283 129 358.5 Q83 434 111 553 Z M225 545 Q207 468 233 423.5 Q259 379 324 379 Q368 379 406.5 393 Q445 407 470 431 Q498 550 474.5 612.5 Q451 675 377 675 Q320 675 279.5 639.5 Q239 604 225 545 Z " />
<glyph glyph-name="dollar.LP" unicode="&#xe0a8;" horiz-adv-x="570" d="M455 180 Q438 107 380 59.5 Q322 12 234 -4 L214 -78 L102 -78 L120 -10 Q75 -8 37.5 1.5 Q0 11 -34 29 L-2 149 Q29 123 74 109 Q119 95 169 95 Q234 95 279 121 Q324 147 334 189 Q344 230 327.5 263.5 Q311 297 240 350 Q190 387 169 409 Q148 431 135 455 Q119 486 116 522.5 Q113 559 124 602 Q140 666 194 709.5 Q248 753 328 767 L356 870 L468 870 L442 773 Q480 770 511.5 761 Q543 752 568 737 L535 611 Q513 636 471.5 650.5 Q430 665 381 665 Q326 665 289 644 Q252 623 243 587 Q232 546 248.5 513 Q265 480 336 428 Q386 392 407.5 370 Q429 348 441 325 Q458 294 461.5 258 Q465 222 455 180 Z " />
<glyph glyph-name="cent.LP" unicode="&#xe09b;" horiz-adv-x="484" d="M371 136 Q345 123 317 114.5 Q289 106 261 102 L234 0 L122 0 L150 108 Q72 132 42.5 213 Q13 294 41 410 Q69 522 134.5 586 Q200 650 299 663 L326 763 L438 763 L411 661 Q435 658 455 651 Q475 644 487 634 L458 526 Q435 545 404 555 Q373 565 338 565 Q265 565 218 522 Q171 479 151 392 Q131 304 155.5 254 Q180 204 244 200 Q280 198 324 210 Q368 222 399 241 L371 136 Z " />
<glyph glyph-name="sterling.LP" unicode="&#xe10e;" horiz-adv-x="634" d="M497 101 L470 0 L-34 0 L-7 101 L68 101 Q96 130 115.5 160 Q135 190 147 221 Q157 246 162 273 Q167 300 168 342 L68 342 L95 443 L168 443 Q168 499 172 531.5 Q176 564 185 594 Q210 679 282.5 726 Q355 773 463 773 Q518 773 564 760.5 Q610 748 639 725 L607 604 Q586 633 547 651 Q508 669 461 669 Q389 669 347.5 643 Q306 617 291 563 Q288 549 286 516 Q284 483 283 443 L545 443 L518 342 L279 342 Q278 328 277 315.5 Q276 303 274 293 Q266 233 245.5 185.5 Q225 138 192 101 L497 101 Z " />
<glyph glyph-name="yen.LP" unicode="&#xe126;" horiz-adv-x="645" d="M512 155 L322 155 L281 0 L161 0 L202 155 L8 155 L36 256 L229 256 L253 345 L51 345 L79 446 L219 446 L106 763 L233 763 L314 525 Q320 507 325 488.5 Q330 470 333 451 L336 451 Q348 470 361 488 Q374 506 387 522 L586 763 L731 763 L458 446 L583 446 L555 345 L373 345 L349 256 L540 256 L512 155 Z " />
<glyph glyph-name="Euro.LP" unicode="&#xe023;" horiz-adv-x="679" d="M539 44 Q491 17 434 3 Q377 -11 318 -11 Q239 -11 183.5 29 Q128 69 104 143 Q97 165 92.5 190 Q88 215 87 242 L-31 242 L-3 343 L94 343 Q97 362 101.5 382.5 Q106 403 112 424 L113 429 L16 429 L44 530 L153 530 Q211 644 311.5 709 Q412 774 537 774 Q591 774 640 760 Q689 746 715 722 L684 605 Q650 634 607 649.5 Q564 665 519 665 Q449 665 387 629 Q325 593 283 530 L548 530 L520 429 L234 429 Q232 424 230.5 419 Q229 414 228 409 Q223 392 219.5 375.5 Q216 359 214 343 L501 343 L473 242 L209 242 Q216 173 255 136 Q294 99 362 99 Q409 99 463 116.5 Q517 134 571 167 L539 44 Z " />
<glyph glyph-name="florin.LP" unicode="&#xe0c6;" horiz-adv-x="378" d="M134 8 Q89 -124 13.5 -179.5 Q-62 -235 -191 -235 L-205 -235 L-178 -134 Q-93 -134 -50 -103 Q-7 -72 17 -2 L134 347 L40 347 L66 442 L166 442 L204 556 Q242 668 305 719 Q368 770 465 770 Q482 770 499.5 767 Q517 764 530 759 L500 649 Q491 656 474.5 661 Q458 666 441 666 Q396 666 365 634 Q334 602 310 530 L280 442 L405 442 L379 347 L248 347 L134 8 Z " />
<glyph glyph-name="numbersign.LP" unicode="&#xe0ea;" horiz-adv-x="786" d="M264 0 L379 210 L221 210 L106 0 L-6 0 L109 210 L14 210 L41 311 L164 311 L237 444 L149 444 L176 545 L293 545 L412 763 L524 763 L405 545 L563 545 L682 763 L794 763 L675 545 L770 545 L743 444 L619 444 L546 311 L635 311 L608 210 L491 210 L376 0 L264 0 Z M276 311 L434 311 L507 444 L349 444 L276 311 Z " />
<glyph glyph-name="zero.slashLT" unicode="&#xe131;" horiz-adv-x="661" d="M594 339 Q549 176 454 82.5 Q359 -11 232 -11 Q91 -11 49 98 Q7 207 65 422 Q110 587 204.5 680.5 Q299 774 427 774 Q568 774 610 663 Q652 552 594 339 Z M175 392 Q155 313 149.5 256.5 Q144 200 153 165 L433 666 Q426 668 418 668.5 Q410 669 402 669 Q324 669 267 599.5 Q210 530 175 392 Z M483 367 Q503 443 509 498.5 Q515 554 507 590 L231 96 Q236 95 242.5 94.5 Q249 94 255 94 Q333 94 391 163 Q449 232 483 367 Z " />
<glyph glyph-name="zero.LT" unicode="&#xe12c;" horiz-adv-x="661" d="M594 339 Q549 176 454 82.5 Q359 -11 232 -11 Q91 -11 49 98 Q7 207 65 422 Q110 587 204.5 680.5 Q299 774 427 774 Q568 774 610 663 Q652 552 594 339 Z M483 367 Q525 527 505 598 Q485 669 402 669 Q324 669 267 599.5 Q210 530 175 392 Q134 233 154 163.5 Q174 94 255 94 Q333 94 391 163 Q449 232 483 367 Z " />
<glyph glyph-name="one.LT" unicode="&#xe0f1;" horiz-adv-x="660" d="M471 103 L443 0 L20 0 L48 103 L202 103 L325 564 L162 564 L186 654 Q208 654 227.5 656.5 Q247 659 265 664 Q285 670 302 679 Q319 688 333 700 Q351 715 362.5 730.5 Q374 746 378 763 L493 763 L317 103 L471 103 Z " />
<glyph glyph-name="two.LT" unicode="&#xe11b;" horiz-adv-x="661" d="M481 103 L453 0 L2 0 L35 123 Q293 318 374 400.5 Q455 483 472 549 Q488 609 463 640.5 Q438 672 376 672 Q329 672 273.5 652 Q218 632 174 600 L204 717 Q250 745 306 760 Q362 775 416 775 Q519 775 567.5 711 Q616 647 589 549 Q565 460 476 364.5 Q387 269 172 106 L175 103 L481 103 Z " />
<glyph glyph-name="three.LT" unicode="&#xe114;" horiz-adv-x="661" d="M190 -11 Q165 -11 141.5 -9 Q118 -7 97 -3 Q66 3 44.5 11.5 Q23 20 11 30 L42 144 Q55 133 74.5 123.5 Q94 114 119 107 Q139 102 160.5 99 Q182 96 205 96 Q280 96 328 124 Q376 152 390 204 Q408 272 368.5 307 Q329 342 236 342 L162 342 L189 443 L276 443 Q356 443 408.5 472.5 Q461 502 473 557 Q485 612 457 641.5 Q429 671 364 671 Q342 671 318.5 667.5 Q295 664 271 657 Q245 650 223.5 641 Q202 632 184 622 L214 736 Q250 754 302.5 764 Q355 774 408 774 Q510 774 561.5 717.5 Q613 661 595 577 Q582 515 539 467.5 Q496 420 435 400 L435 398 Q484 378 503.5 320.5 Q523 263 503 191 Q476 95 394 42 Q312 -11 190 -11 Z " />
<glyph glyph-name="four.LT" unicode="&#xe0cb;" horiz-adv-x="661" d="M290 0 L338 179 L10 179 L36 275 L473 763 L609 763 L479 275 L567 275 L541 179 L453 179 L405 0 L290 0 Z M163 278 L166 275 L364 275 L435 517 Q440 534 444.5 551 Q449 568 456 596 Q460 612 462 619.5 Q464 627 466 633 L463 633 Q457 624 433.5 595 Q410 566 368 517 L163 278 Z " />
<glyph glyph-name="five.LT" unicode="&#xe0c0;" horiz-adv-x="661" d="M196 -11 Q169 -11 145 -9 Q121 -7 99 -3 Q66 3 43.5 11 Q21 19 10 30 L40 143 Q53 131 73 121 Q93 111 120 103 Q140 98 162.5 95 Q185 92 209 92 Q281 92 330 125 Q379 158 394 216 Q409 274 386.5 309 Q364 344 305 357 Q278 363 241.5 364.5 Q205 366 113 360 L222 764 L618 764 L590 661 L309 661 L256 461 Q410 471 476 403.5 Q542 336 508 205 Q482 107 398.5 48 Q315 -11 196 -11 Z " />
<glyph glyph-name="six.LT" unicode="&#xe109;" horiz-adv-x="660" d="M538 209 Q515 110 438 49 Q361 -12 255 -12 Q119 -12 73.5 96.5 Q28 205 80 407 Q126 582 232.5 678 Q339 774 493 774 Q531 774 569.5 766 Q608 758 644 743 L614 629 Q574 651 538 661 Q502 671 469 669 Q368 664 301 603 Q234 542 202 424 Q237 451 280.5 465 Q324 479 374 479 Q474 479 520 403.5 Q566 328 538 209 Z M424 217 Q442 294 416 338.5 Q390 383 325 383 Q281 383 242.5 369 Q204 355 179 331 Q151 212 174.5 149.5 Q198 87 272 87 Q329 87 369.5 122.5 Q410 158 424 217 Z " />
<glyph glyph-name="seven.LT" unicode="&#xe103;" horiz-adv-x="660" d="M633 651 L176 0 L48 0 L515 657 L515 660 L172 660 L199 763 L663 763 L633 651 Z " />
<glyph glyph-name="eight.LT" unicode="&#xe0b0;" horiz-adv-x="660" d="M553 186 Q528 93 443.5 39.5 Q359 -14 236 -11 Q116 -9 57 54.5 Q-2 118 25 219 Q40 277 98.5 332 Q157 387 223 406 Q175 435 154.5 485.5 Q134 536 149 596 Q168 674 245.5 725.5 Q323 777 425 774 Q533 771 586 713.5 Q639 656 614 567 Q600 517 555 471 Q510 425 456 405 Q519 368 545 310.5 Q571 253 553 186 Z M496 565 Q510 617 484.5 648 Q459 679 398 678 Q348 677 310.5 652 Q273 627 263 587 Q251 540 280.5 502.5 Q310 465 373 446 Q421 466 454 497.5 Q487 529 496 565 Z M438 195 Q453 254 418 295.5 Q383 337 297 361 Q242 343 197.5 302.5 Q153 262 141 217 Q125 157 155.5 122.5 Q186 88 256 85 Q325 82 374.5 112 Q424 142 438 195 Z " />
<glyph glyph-name="nine.LT" unicode="&#xe0e5;" horiz-adv-x="660" d="M122 553 Q145 652 222 713 Q299 774 405 774 Q541 774 586.5 665 Q632 556 580 355 Q534 180 427.5 84 Q321 -12 167 -12 Q129 -12 90.5 -4 Q52 4 16 19 L46 133 Q86 111 122 101 Q158 91 191 93 Q292 98 359 159 Q426 220 458 338 Q423 311 379.5 297 Q336 283 286 283 Q186 283 140 358.5 Q94 434 122 553 Z M236 545 Q218 468 244 423.5 Q270 379 335 379 Q379 379 417.5 393 Q456 407 481 431 Q509 550 485.5 612.5 Q462 675 388 675 Q331 675 290.5 639.5 Q250 604 236 545 Z " />
<glyph glyph-name="dollar.LT" unicode="&#xe0a9;" horiz-adv-x="660" d="M500 180 Q483 107 425 59.5 Q367 12 279 -4 L259 -78 L147 -78 L165 -10 Q120 -8 82.5 1.5 Q45 11 11 29 L43 149 Q74 123 119 109 Q164 95 214 95 Q279 95 324 121 Q369 147 379 189 Q389 230 372.5 263.5 Q356 297 285 350 Q235 387 214 409 Q193 431 180 455 Q164 486 161 522.5 Q158 559 169 602 Q185 666 239 709.5 Q293 753 373 767 L401 870 L513 870 L487 773 Q525 770 556.5 761 Q588 752 613 737 L580 611 Q558 636 516.5 650.5 Q475 665 426 665 Q371 665 334 644 Q297 623 288 587 Q277 546 293.5 513 Q310 480 381 428 Q431 392 452.5 370 Q474 348 486 325 Q503 294 506.5 258 Q510 222 500 180 Z " />
<glyph glyph-name="cent.LT" unicode="&#xe09c;" horiz-adv-x="660" d="M454 136 Q428 123 400 114.5 Q372 106 344 102 L317 0 L205 0 L233 108 Q155 132 125.5 213 Q96 294 124 410 Q152 522 217.5 586 Q283 650 382 663 L409 763 L521 763 L494 661 Q518 658 538 651 Q558 644 570 634 L541 526 Q518 545 487 555 Q456 565 421 565 Q348 565 301 522 Q254 479 234 392 Q214 304 238.5 254 Q263 204 327 200 Q363 198 407 210 Q451 222 482 241 L454 136 Z " />
<glyph glyph-name="sterling.LT" unicode="&#xe10f;" horiz-adv-x="660" d="M505 101 L478 0 L-26 0 L1 101 L76 101 Q104 130 123.5 160 Q143 190 155 221 Q165 246 170 273 Q175 300 176 342 L76 342 L103 443 L176 443 Q176 499 180 531.5 Q184 564 193 594 Q218 679 290.5 726 Q363 773 471 773 Q526 773 572 760.5 Q618 748 647 725 L615 604 Q594 633 555 651 Q516 669 469 669 Q397 669 355.5 643 Q314 617 299 563 Q296 549 294 516 Q292 483 291 443 L553 443 L526 342 L287 342 Q286 328 285 315.5 Q284 303 282 293 Q274 233 253.5 185.5 Q233 138 200 101 L505 101 Z " />
<glyph glyph-name="yen.LT" unicode="&#xe127;" horiz-adv-x="661" d="M520 155 L330 155 L289 0 L169 0 L210 155 L16 155 L44 256 L237 256 L261 345 L59 345 L87 446 L227 446 L114 763 L241 763 L322 525 Q328 507 333 488.5 Q338 470 341 451 L344 451 Q356 470 369 488 Q382 506 395 522 L594 763 L739 763 L466 446 L591 446 L563 345 L381 345 L357 256 L548 256 L520 155 Z " />
<glyph glyph-name="Euro.LT" unicode="&#xe024;" horiz-adv-x="661" d="M535 44 Q487 17 430 3 Q373 -11 314 -11 Q235 -11 179.5 29 Q124 69 100 143 Q93 165 88.5 190 Q84 215 83 242 L-35 242 L-7 343 L90 343 Q93 362 97.5 382.5 Q102 403 108 424 L109 429 L12 429 L40 530 L149 530 Q207 644 307.5 709 Q408 774 533 774 Q587 774 636 760 Q685 746 711 722 L680 605 Q646 634 603 649.5 Q560 665 515 665 Q445 665 383 629 Q321 593 279 530 L544 530 L516 429 L230 429 Q228 424 226.5 419 Q225 414 224 409 Q219 392 215.5 375.5 Q212 359 210 343 L497 343 L469 242 L205 242 Q212 173 251 136 Q290 99 358 99 Q405 99 459 116.5 Q513 134 567 167 L535 44 Z " />
<glyph glyph-name="florin.LT" unicode="&#xe0c7;" horiz-adv-x="660" d="M300 8 Q255 -124 179.5 -179.5 Q104 -235 -25 -235 L-39 -235 L-12 -134 Q73 -134 116 -103 Q159 -72 183 -2 L300 347 L206 347 L232 442 L332 442 L370 556 Q408 668 471 719 Q534 770 631 770 Q648 770 665.5 767 Q683 764 696 759 L666 649 Q657 656 640.5 661 Q624 666 607 666 Q562 666 531 634 Q500 602 476 530 L446 442 L571 442 L545 347 L414 347 L300 8 Z " />
<glyph glyph-name="numbersign.LT" unicode="&#xe0eb;" horiz-adv-x="660" d="M201 0 L316 210 L158 210 L43 0 L-69 0 L46 210 L-49 210 L-22 311 L101 311 L174 444 L86 444 L113 545 L230 545 L349 763 L461 763 L342 545 L500 545 L619 763 L731 763 L612 545 L707 545 L680 444 L556 444 L483 311 L572 311 L545 210 L428 210 L313 0 L201 0 Z M213 311 L371 311 L444 444 L286 444 L213 311 Z " />
<glyph glyph-name="zero.slashOP" unicode="&#xe132;" horiz-adv-x="632" d="M528 253 Q493 123 413.5 55.5 Q334 -12 215 -11 Q96 -10 53 70 Q10 150 47 294 Q80 422 160.5 490 Q241 558 359 556 Q479 554 522.5 474.5 Q566 395 528 253 Z M161 294 Q150 251 147 217 Q144 183 150 158 L361 450 Q354 452 347 453 Q340 454 332 454 Q269 456 225.5 415 Q182 374 161 294 Z M242 91 Q306 90 349 130.5 Q392 171 414 253 Q423 288 426.5 317 Q430 346 428 368 L227 92 Q231 92 234.5 91.5 Q238 91 242 91 Z " />
<glyph glyph-name="zero.OP" unicode="&#xe12d;" horiz-adv-x="632" d="M528 253 Q493 123 413.5 55.5 Q334 -12 215 -11 Q96 -10 53 70 Q10 150 47 294 Q80 422 160.5 490 Q241 558 359 556 Q479 554 522.5 474.5 Q566 395 528 253 Z M414 253 Q440 349 419.5 400.5 Q399 452 332 454 Q269 456 225.5 415 Q182 374 161 294 Q135 195 155 143.5 Q175 92 242 91 Q306 90 349 130.5 Q392 171 414 253 Z " />
<glyph glyph-name="one.OP" unicode="&#xe0f2;" horiz-adv-x="474" d="M387 103 L359 0 L-13 0 L15 103 L145 103 L219 380 L82 380 L106 471 Q123 471 138.5 472.5 Q154 474 168 477 Q185 481 199 486.5 Q213 492 224 499 Q240 510 250 521.5 Q260 533 263 545 L375 545 L257 103 L387 103 Z " />
</font>
</svg>
